2024 美国 剧情 WEB-1080P 绝望写手 第三季[第07-08集][简繁英字幕].Hacks.S03.1080p.Max.WEB-DL.DDP.5.1.H.264-BlackTV 1.55GB

Katt2092T 2024-05-23 23:09 1865


完整标题:绝望写手 第三季[第07-08集][简繁英字幕].Hacks.S03.1080p.Max.WEB-DL.DDP.5.1.H.264-BlackTV 1.55GB




◎标  题 绝望写手 第三季
◎译  名 喜剧女王 / 老哏新侃 / 天后与草莓(台)
◎片  名 Hacks Season 3
◎年  代 2024
◎产  地 美国
◎类  别 剧情 / 喜剧
◎语  言 英语
◎IMDb评分 9/10 (7人评价)
◎IMDb链接 https://www.imdb.com/title/tt21063192/
◎豆瓣链接 https://movie.douban.com/subject/35932853/
◎导  演 露西亚·安尼洛 Lucia Aniello
◎演  员 珍·斯马特 Jean Smart
      汉娜·爱宾德 Hannah Einbinder
      保罗·当斯 Paul W. Downs
      梅根·斯塔尔特 Megan Stalter
      卡尔·克莱蒙斯-霍普金斯 Carl Clemons-Hopkins
      凯特琳·奥尔森 Kaitlin Olson
      克里斯托弗·麦克唐纳 Christopher McDonald
      马克·印第里凯托 Mark Indelicato
      罗斯·阿卜杜 Rose Abdoo
      洛伦扎·伊佐 Lorenza Izzo
      海伦·亨特 Helen Hunt
      克里斯蒂娜·亨德里克斯 Christina Hendricks
      克里斯托弗·洛伊德 Christopher Lloyd
      丹·布卡廷斯基 Dan Bucatinsky
      乔治·华莱士 George Wallace
      托尼·戈德温 Tony Goldwyn
      亚里士多德·阿塔里 Aristotle Athari
      迈克尔·加尔扎 Michael Garza
      Elyssa Phillips
      Beth Curry
      George Todd McLachlan
      RiRia
      Bottara Angele
      Lucas Lockwood
      Tommy Do
      Anna Benuzzi
      Palma Lawrence Reed
      Maame-Yaa Aforo
      Jonima Diaby
      Jack Norris
      Tiffany Bank
      Wayne Stephens
      Andrea LeBlanc
      Nathalia Coppa
      Isabella Hunter

◎简  介
    分开一年之后,Deborah Vance(珍·斯马特 Jean Smart 饰)因其单口特辑的成功而如日中天,而Ava(汉娜·爱宾德 Hannah Einbinder 饰)则在洛杉矶寻找新的事业机会。

##### MediaInfo ######
General
Unique ID : 29749476351994124857731685095121968795 (0x16618A6D84A64FB503A589C913755E9B)
Complete name : Hacks.S03E07.The.Christmas.Spectacular.1080p.Max.WEB-DL.DDP.5.1.H.264-BlackTV.mkv
Duration : 34 min 20 s
Overall bit rate mode : Variable
Overall bit rate : 3 304 kb/s

Video
ID : 1
Format : AVC
Format/Info : Advanced Video Codec
Format profile : High@L4.1
Format settings : CABAC / 4 Ref Frames
Format settings, CABAC : Yes
Format settings, Reference frames : 4 frames
Codec ID : V_MPEG4/ISO/AVC
Duration : 34 min 20 s
Bit rate mode : Variable
Bit rate : 3 042 kb/s
Maximum bit rate : 10 000 kb/s
Width : 1 920 pixels
Height : 960 pixels
Display aspect ratio : 2.000
Frame rate mode : Constant
Frame rate : 23.976 (24000/1001) FPS
Color space : YUV
Chroma subsampling : 4:2:0
Bit depth : 8 bits
Scan type : Progressive
Bits/(Pixel*Frame) : 0.069
Stream size : 747 MiB (92%)
Writing library : x264 core 164
Encoding settings : cabac=1 / ref=4 / deblock=1:0:0 / analyse=0x3:0x133 / me=umh / subme=10 / psy=1 / psy_rd=1.00:0.00 / mixed_ref=1 / me_range=24 / chroma_me=1 / trellis=2 / 8x8dct=1 / cqm=0 / deadzone=21,11 / fast_pskip=1 / chroma_qp_offset=-2 / threads=24 / lookahead_threads=2 / sliced_threads=0 / nr=0 / decimate=1 / interlaced=0 / bluray_compat=0 / stitchable=1 / constrained_intra=0 / bframes=3 / b_pyramid=2 / b_adapt=2 / b_bias=0 / direct=3 / weightb=1 / open_gop=0 / weightp=2 / keyint=96 / keyint_min=49 / scenecut=0 / intra_refresh=0 / rc_lookahead=96 / rc=crf / mbtree=1 / crf=20.0 / qcomp=0.60 / qpmin=0 / qpmax=69 / qpstep=4 / vbv_maxrate=10000 / vbv_bufsize=40000 / crf_max=0.0 / nal_hrd=vbr / filler=0 / ip_ratio=1.40 / aq=1:1.00
Language : English
Default : Yes
Forced : No
Color range : Limited
Color primaries : BT.709
Transfer characteristics : BT.709
Matrix coefficients : BT.709

Audio
ID : 2
Format : E-AC-3
Format/Info : Enhanced AC-3
Commercial name : Dolby Digital Plus
Codec ID : A_EAC3
Duration : 34 min 20 s
Bit rate mode : Constant
Bit rate : 256 kb/s
Channel(s) : 6 channels
Channel layout : L R C LFE Ls Rs
Sampling rate : 48.0 kHz
Frame rate : 31.250 FPS (1536 SPF)
Compression mode : Lossy
Stream size : 62.9 MiB (8%)
Language : English
Service kind : Complete Main
Default : Yes
Forced : No

Text #1
ID : 3
Format : UTF-8
Codec ID : S_TEXT/UTF8
Codec ID/Info : UTF-8 Plain Text
Duration : 33 min 12 s
Bit rate : 95 b/s
Frame rate : 0.426 FPS
Count of elements : 849
Stream size : 23.2 KiB (0%)
Title : Latin America (SDH)
Language : Spanish
Default : No
Forced : No

Text #2
ID : 4
Format : UTF-8
Codec ID : S_TEXT/UTF8
Codec ID/Info : UTF-8 Plain Text
Duration : 34 min 19 s
Bit rate : 104 b/s
Frame rate : 0.453 FPS
Count of elements : 933
Stream size : 26.2 KiB (0%)
Title : SDH
Language : English
Default : No
Forced : No

Text #3
ID : 5
Format : UTF-8
Codec ID : S_TEXT/UTF8
Codec ID/Info : UTF-8 Plain Text
Duration : 33 min 47 s
Bit rate : 134 b/s
Frame rate : 0.278 FPS
Count of elements : 563
Stream size : 33.3 KiB (0%)
Language : Bulgarian
Default : No
Forced : No

Text #4
ID : 6
Format : UTF-8
Codec ID : S_TEXT/UTF8
Codec ID/Info : UTF-8 Plain Text
Duration : 33 min 47 s
Bit rate : 81 b/s
Frame rate : 0.294 FPS
Count of elements : 597
Stream size : 20.2 KiB (0%)
Language : Czech
Default : No
Forced : No

Text #5
ID : 7
Format : UTF-8
Codec ID : S_TEXT/UTF8
Codec ID/Info : UTF-8 Plain Text
Duration : 33 min 42 s
Bit rate : 88 b/s
Frame rate : 0.254 FPS
Count of elements : 513
Stream size : 21.9 KiB (0%)
Language : Danish
Default : No
Forced : No

Text #6
ID : 8
Format : UTF-8
Codec ID : S_TEXT/UTF8
Codec ID/Info : UTF-8 Plain Text
Duration : 33 min 42 s
Bit rate : 81 b/s
Frame rate : 0.293 FPS
Count of elements : 593
Stream size : 20.1 KiB (0%)
Default : No
Forced : No

Text #7
ID : 9
Format : UTF-8
Codec ID : S_TEXT/UTF8
Codec ID/Info : UTF-8 Plain Text
Duration : 32 min 23 s
Bit rate : 97 b/s
Frame rate : 0.431 FPS
Count of elements : 838
Stream size : 23.1 KiB (0%)
Language : English
Default : No
Forced : No

Text #8
ID : 10
Format : UTF-8
Codec ID : S_TEXT/UTF8
Codec ID/Info : UTF-8 Plain Text
Duration : 33 min 39 s
Bit rate : 79 b/s
Frame rate : 0.329 FPS
Count of elements : 664
Stream size : 19.5 KiB (0%)
Title : Latin America
Language : Spanish
Default : No
Forced : No

Text #9
ID : 11
Format : UTF-8
Codec ID : S_TEXT/UTF8
Codec ID/Info : UTF-8 Plain Text
Duration : 32 min 22 s
Bit rate : 91 b/s
Frame rate : 0.295 FPS
Count of elements : 574
Stream size : 21.6 KiB (0%)
Language : Spanish
Default : No
Forced : No

Text #10
ID : 12
Format : UTF-8
Codec ID : S_TEXT/UTF8
Codec ID/Info : UTF-8 Plain Text
Duration : 33 min 42 s
Bit rate : 82 b/s
Frame rate : 0.273 FPS
Count of elements : 553
Stream size : 20.3 KiB (0%)
Language : Finnish
Default : No
Forced : No

Text #11
ID : 13
Format : UTF-8
Codec ID : S_TEXT/UTF8
Codec ID/Info : UTF-8 Plain Text
Duration : 33 min 47 s
Bit rate : 82 b/s
Frame rate : 0.292 FPS
Count of elements : 592
Stream size : 20.4 KiB (0%)
Language : Croatian
Default : No
Forced : No

Text #12
ID : 14
Format : UTF-8
Codec ID : S_TEXT/UTF8
Codec ID/Info : UTF-8 Plain Text
Duration : 33 min 47 s
Bit rate : 81 b/s
Frame rate : 0.290 FPS
Count of elements : 587
Stream size : 20.2 KiB (0%)
Language : Hungarian
Default : No
Forced : No

Text #13
ID : 15
Format : UTF-8
Codec ID : S_TEXT/UTF8
Codec ID/Info : UTF-8 Plain Text
Duration : 33 min 42 s
Bit rate : 79 b/s
Frame rate : 0.296 FPS
Count of elements : 598
Stream size : 19.6 KiB (0%)
Language : Lithuanian
Default : No
Forced : No

Text #14
ID : 16
Format : UTF-8
Codec ID : S_TEXT/UTF8
Codec ID/Info : UTF-8 Plain Text
Duration : 33 min 42 s
Bit rate : 80 b/s
Frame rate : 0.296 FPS
Count of elements : 598
Stream size : 20.0 KiB (0%)
Default : No
Forced : No

Text #15
ID : 17
Format : UTF-8
Codec ID : S_TEXT/UTF8
Codec ID/Info : UTF-8 Plain Text
Duration : 33 min 47 s
Bit rate : 123 b/s
Frame rate : 0.292 FPS
Count of elements : 591
Stream size : 30.7 KiB (0%)
Language : Macedonian
Default : No
Forced : No

Text #16
ID : 18
Format : UTF-8
Codec ID : S_TEXT/UTF8
Codec ID/Info : UTF-8 Plain Text
Duration : 33 min 42 s
Bit rate : 73 b/s
Frame rate : 0.246 FPS
Count of elements : 497
Stream size : 18.0 KiB (0%)
Language : Norwegian Bokmal
Default : No
Forced : No

Text #17
ID : 19
Format : UTF-8
Codec ID : S_TEXT/UTF8
Codec ID/Info : UTF-8 Plain Text
Duration : 33 min 42 s
Bit rate : 84 b/s
Frame rate : 0.257 FPS
Count of elements : 520
Stream size : 20.8 KiB (0%)
Language : Dutch
Default : No
Forced : No

Text #18
ID : 20
Format : UTF-8
Codec ID : S_TEXT/UTF8
Codec ID/Info : UTF-8 Plain Text
Duration : 33 min 42 s
Bit rate : 75 b/s
Frame rate : 0.292 FPS
Count of elements : 590
Stream size : 18.6 KiB (0%)
Language : Polish
Default : No
Forced : No

Text #19
ID : 21
Format : UTF-8
Codec ID : S_TEXT/UTF8
Codec ID/Info : UTF-8 Plain Text
Duration : 33 min 39 s
Bit rate : 82 b/s
Frame rate : 0.329 FPS
Count of elements : 664
Stream size : 20.3 KiB (0%)
Title : Brazil
Language : Portuguese
Default : No
Forced : No

Text #20
ID : 22
Format : UTF-8
Codec ID : S_TEXT/UTF8
Codec ID/Info : UTF-8 Plain Text
Duration : 33 min 42 s
Bit rate : 85 b/s
Frame rate : 0.295 FPS
Count of elements : 596
Stream size : 21.2 KiB (0%)
Language : Portuguese
Default : No
Forced : No

Text #21
ID : 23
Format : UTF-8
Codec ID : S_TEXT/UTF8
Codec ID/Info : UTF-8 Plain Text
Duration : 33 min 42 s
Bit rate : 82 b/s
Frame rate : 0.285 FPS
Count of elements : 576
Stream size : 20.5 KiB (0%)
Language : Romanian
Default : No
Forced : No

Text #22
ID : 24
Format : UTF-8
Codec ID : S_TEXT/UTF8
Codec ID/Info : UTF-8 Plain Text
Duration : 33 min 47 s
Bit rate : 68 b/s
Frame rate : 0.243 FPS
Count of elements : 493
Stream size : 16.9 KiB (0%)
Language : Slovenian
Default : No
Forced : No

Text #23
ID : 25
Format : UTF-8
Codec ID : S_TEXT/UTF8
Codec ID/Info : UTF-8 Plain Text
Duration : 33 min 47 s
Bit rate : 80 b/s
Frame rate : 0.295 FPS
Count of elements : 599
Stream size : 19.9 KiB (0%)
Title : Latin
Language : Serbian
Default : No
Forced : No

Text #24
ID : 26
Format : UTF-8
Codec ID : S_TEXT/UTF8
Codec ID/Info : UTF-8 Plain Text
Duration : 33 min 42 s
Bit rate : 75 b/s
Frame rate : 0.246 FPS
Count of elements : 498
Stream size : 18.5 KiB (0%)
Language : Swedish
Default : No
Forced : No

Text #25
ID : 27
Format : UTF-8
Codec ID : S_TEXT/UTF8
Codec ID/Info : UTF-8 Plain Text
Duration : 32 min 28 s
Bit rate : 77 b/s
Frame rate : 0.333 FPS
Count of elements : 649
Stream size : 18.5 KiB (0%)
Title : Simplified
Language : Chinese
Default : Yes
Forced : No

Text #26
ID : 28
Format : UTF-8
Codec ID : S_TEXT/UTF8
Codec ID/Info : UTF-8 Plain Text
Duration : 32 min 28 s
Bit rate : 77 b/s
Frame rate : 0.333 FPS
Count of elements : 649
Stream size : 18.5 KiB (0%)
Title : Traditional
Language : Chinese
Default : No
Forced : No


点击图片可查看大图

软字幕无法在截图上展现,HDR版本/杜比视界版本截图会出现颜色异常,请使用支持的设备播放!

部分资源为软字幕,移动端推荐播放器:MxPlayer,nPlayer,infuse ,其他播放器请自行尝试。

部分资源为软字幕,电脑端推荐播放器:PotPlayer,完美解码,KMPLAYER,其他播放器请自行尝试。

下载端推荐纯BT下载软件:qBittorrent,Bitcomet,uTorrent ,其他下载软件请自行尝试。不支持吸血迅雷。

上传的附件:
最新回复 (0)