2022 选秀 其它 单集 [网盘下载]Chung kho miss world viet nam 2022 Full HD 越南世界小姐总决赛[无字][4.9GiB]

EaFF 2024-01-19 00:36 820


免责声明:

此文件来源于网络.版权归原出版公司及原著作者所有.

本专辑仅供试听,请勿挪作它用!试听完毕请予24小时内删除。

如果喜欢本专辑,请购买正版。特此声明!谢谢合作!

遇夹不补 见者有缘 



简介:

              越南世界小姐总决赛


属性:

General

Complete name                  : J:\bones001\越南世界小姐总决赛_2022\Chung kho miss world viet nam 2022 Full HD.mp4

Format                         : MPEG-4

Format profile                 : Base Media

Codec ID                       : isom (isom/iso2/avc1/mp41)

File size                      : 4.93 GiB

Duration                       : 3 h 1 min

Overall bit rate               : 3 894 kb/s

Movie name                     : D^EM CHUNG KHO TO`AN QUC MISS WORLD VIETNAM 2022

Performer                      : Miss World Vit Nam

Description                    : Dêm chung kho toàn quc - Miss World Vietnam 2022 là 1 trong nhng dêm thi n tng dc du t v^o cùng k lng. Chng trình s din ra nhiu hot dng thú v và hp dn, nhng gng mt ni bt, màn trình din dc sc cùng nhng b su tp dc dáo và s hi t ca các ngh s~i, ca s~i ni ting hin nay. Tt c s din ra vào lúc 20h ngày 24.04.2022 và truyn hình trc tip – kênh VTV2 – Dài truyn hình Vit Nam.  /  / Chng trình dc tip sóng trên 15 dài: VOVTV, THVL3, SCTV4, Cn Th, Dà Nng, Thanh Hóa, Thái Nguyên, Kiên Giang, Bc Liêu, Bình Phc, Dk N^ong, Ninh Thun, Qung Nam, Cao Bng, Bc Kn /  / Ha hn s mang dn cho các bn nhng cung bc cm xúc khác nhau t nhng phn thi n tng ca Ngi dp du lch cùng các phn trình din áo dài, bikni, d hi ca Top thí sinh vòng Chung kho toàn quc.  / Chào dón nhng màn trình din m~an nh~an ca các ngh s~i hot nht hin nay: M T^am, M Linh, Dc Tun, Isaac, Van Mai Hng, Phm Thu Hà, Dng Hoàng Yn.  /  / Tt c s dc tit l trong ti nay, h~ay dón xem! / Subscribe kênh: https://www.youtube.com/channel/UCdHHc7KrAqkHTiLYTmzVw8A?sub_confirmation=1

Recorded date                  : 20220428

Writing application            : Lavf58.76.100

Cover                          : Yes

Comment                        : https://www.youtube.com/watch?v=2oGCtk52SfI

LongDescription                : Dêm chung kho toàn quc - Miss World Vietnam 2022 là 1 trong nhng dêm thi n tng dc du t v^o cùng k lng. Chng trình s din ra nhiu hot dng thú v và hp dn, nhng gng mt ni bt, màn trình din dc sc cùng nhng b su tp dc dáo và s hi t ca các ngh s~i, ca s~i ni ting hin nay. Tt c s din ra vào lúc 20h ngày 24.04.2022 và truyn hình trc tip – kênh VTV2 – Dài truyn hình Vit Nam.  /  / Chng trình dc tip sóng trên 15 dài: VOVTV, THVL3, SCTV4, Cn Th, Dà Nng, Thanh Hóa, Thái Nguyên, Kiên Giang, Bc Liêu, Bình Phc, Dk N^ong, Ninh Thun, Qung Nam, Cao Bng, Bc Kn /  / Ha hn s mang dn cho các bn nhng cung bc cm xúc khác nhau t nhng phn thi n tng ca Ngi dp du lch cùng các phn trình din áo dài, bikni, d hi ca Top thí sinh vòng Chung kho toàn quc.  / Chào dón nhng màn trình din m~an nh~an ca các ngh s~i hot nht hin nay: M T^am, M Linh, Dc Tun, Isaac, Van Mai Hng, Phm Thu Hà, Dng Hoàng Yn.  /  / Tt c s dc tit l trong ti nay, h~ay dón xem! / Subscribe kênh: https://www.youtube.com/channel/UCdHHc7KrAqkHTiLYTmzVw8A?sub_confirmation=1


Video

ID                             : 1

Format                         : AVC

Format/Info                    : Advanced Video Codec

Format profile                 : High@L4

Format settings                : CABAC / 3 Ref Frames

Format settings, CABAC         : Yes

Format settings, ReFrames      : 3 frames

Codec ID                       : avc1

Codec ID/Info                  : Advanced Video Coding

Duration                       : 3 h 1 min

Bit rate                       : 3 758 kb/s

Width                          : 1 920 pixels

Height                         : 1 080 pixels

Display aspect ratio           : 16:9

Frame rate mode                : Constant

Frame rate                     : 23.976 (24000/1001) FPS

Color space                    : YUV

Chroma subsampling             : 4:2:0

Bit depth                      : 8 bits

Scan type                      : Progressive

Bits/(Pixel*Frame)             : 0.076

Stream size                    : 4.75 GiB (97%)

Title                          : ISO Media file produced by Google Inc.

Writing library                : x264 core 155 r2901 7d0ff22

Color range                    : Limited

Color primaries                : BT.709

Transfer characteristics       : BT.709

Matrix coefficients            : BT.709


Audio

ID                             : 2

Format                         : AAC

Format/Info                    : Advanced Audio Codec

Format profile                 : LC

Codec ID                       : mp4a-40-2

Duration                       : 3 h 1 min

Bit rate mode                  : Constant

Bit rate                       : 128 kb/s

Channel(s)                     : 2 channels

Channel positions              : Front: L R

Sampling rate                  : 44.1 kHz

Frame rate                     : 43.066 FPS (1024 SPF)

Compression mode               : Lossy

Stream size                    : 166 MiB (3%)

Title                          : ISO Media file produced by Google Inc.

Default                        : Yes

Alternate group                : 1

感谢@清新的红草莓 帮助从谷歌磁盘拉回资源 @yaohui123 帮助资源代传百度云盘


Chung kho miss world viet nam 2022 Full HD   4.91GB


Full Show Chung Kho Toàn Quc Miss World Vietnam 2022 VTV2   4.92GB


两个文件内容一样,只是一个文件有台标,VTV2这个文件有台标,另外一个没有台标





[百度网盘]Chung kho miss world viet nam 2022 Full HD 越南世界小姐总决赛[1920x1080][Mp4][4.9GiB]


[Google Drive]Chung kho miss world viet nam 2022 Full HD 越南世界小姐总决赛[1920x1080][Mp4][4.9GiB]

最新回复 (0)