2017 大陆 战争 WEB-1080P 暗战风云[第15-20集][国语配音/中文字幕].An.Zhan.Feng.Yun.2017.S01.1080p.WEB-DL.H264.AAC-Huawei

HjybHq 2023-12-06 05:12 920

完整标题:暗战风云[第15-20集][国语配音/中文字幕].An.Zhan.Feng.Yun.2017.S01.1080p.WEB-DL.H264.AAC-Huawei 2.44GB



◎标  题 暗战风云
◎译  名 站在你背后
◎年  代 2017
◎产  地 中国大陆
◎类  别 战争
◎语  言 汉语普通话
◎IMDb链接 https://www.imdb.com/title//
◎豆瓣链接 https://movie.douban.com/subject/27170021/
◎导  演 穆龙 Long Mu
◎演  员 安泽豪 Zehao An
      邱心志 Hsin-chih Chiu
      李修贤 Danny Lee
      王奎荣 Kuirong Wang
      江琳琳 Linlin Jiang

◎简  介
    剧情讲述了在深夜,红色紧急电话响起,市公安局被告之,在上海发现了正在追查的临海市九洲机械厂厂长张东海的尸体。负责人林笑海副局长顿感事态严重,张东海的死将意味着一个拥有上万人的临海市九洲机械厂陷入瘫痪,更可怕的是,全厂的资金不知去向,还拖欠了工人半年的工资,人心浮躁,社会矛盾一触即发。

##### MediaInfo ######
General
Complete name : An.Zhan.Feng.Yun.2017.S01E15.1080p.WEB-DL.H264.AAC-Huawei.mp4
Format : MPEG-4
Format profile : Base Media
Codec ID : isom (isom/iso2/avc1/mp41)
File size : 410 MiB
Duration : 45 min 18 s
Overall bit rate mode : Variable
Overall bit rate : 1 266 kb/s
Writing application : Lavf58.35.100

Video
ID : 1
Format : AVC
Format/Info : Advanced Video Codec
Format profile : High@L5
Format settings : CABAC / 5 Ref Frames
Format settings, CABAC : Yes
Format settings, Reference frames : 5 frames
Codec ID : avc1
Codec ID/Info : Advanced Video Coding
Duration : 45 min 18 s
Bit rate : 1 132 kb/s
Width : 1 920 pixels
Height : 1 080 pixels
Display aspect ratio : 16:9
Frame rate mode : Constant
Frame rate : 25.000 FPS
Color space : YUV
Chroma subsampling : 4:2:0
Bit depth : 8 bits
Scan type : Progressive
Bits/(Pixel*Frame) : 0.022
Stream size : 367 MiB (89%)
Color range : Limited
Color primaries : BT.709
Transfer characteristics : BT.709
Matrix coefficients : BT.709
Codec configuration box : avcC

Audio
ID : 2
Format : AAC LC
Format/Info : Advanced Audio Codec Low Complexity
Codec ID : mp4a-40-2
Duration : 45 min 18 s
Bit rate mode : Variable
Bit rate : 128 kb/s
Maximum bit rate : 132 kb/s
Channel(s) : 2 channels
Channel layout : L R
Sampling rate : 44.1 kHz
Frame rate : 43.066 FPS (1024 SPF)
Compression mode : Lossy
Stream size : 41.5 MiB (10%)
Default : Yes
Alternate group : 1

部分资源为软字幕,移动端推荐播放器:MxPlayer,nPlayer,infuse ,其他播放器请自行尝试。

部分资源为软字幕,电脑端推荐播放器:PotPlayer,完美解码,KMPLAYER,其他播放器请自行尝试。


上传的附件:
最新回复 (0)