2024 大陆 剧情 WEB-1080P 大明悬案录之泥犁篇[全24集][国语配音/中文字幕].2024.1080p.WEB-DL.H264.AAC-ZeroTV 4.02GB

RAY20920M 2024-02-24 02:33 1069


完整标题:大明悬案录之泥犁篇[全24集][国语配音/中文字幕].2024.1080p.WEB-DL.H264.AAC-ZeroTV 4.02GB


◎标  题 大明悬案录之泥犁篇
◎年  代 2024
◎产  地 中国大陆
◎类  别 剧情 / 悬疑 / 短片 / 古装
◎语  言 汉语普通话
◎IMDb链接 https://www.imdb.com/title//
◎豆瓣链接 https://movie.douban.com/subject/36415716/
◎导  演 刘赫 He Liu
◎演  员 李星瑶 Xingyao Li
      陈名豪 Minghao Chen
      吴阳子
      曾怀毅
      沈雪炜 Xuewei Shen
      朱忠进

◎简  介
    《大明悬案录之泥梨篇》讲述六扇门女捕头丁昭昭卷入离奇案件,并与“侠盗”楚不凡结下不解之缘,共同探案追凶的故事。   《大明悬案录之黑眚》讲述明成化十二年京城突现黑眚伤人异象,六扇门女捕头丁昭昭与侠盗楚不凡、六扇门捕头何越非等人合力探案解谜,追查真相,护佑京城安定的故事。

##### MediaInfo ######
General
Complete name : 大明悬案录之泥犁篇.Da.Ming.Xuan.An.Lu.Zhi.Ni.Li.Pian.S01E01.2024.1080p.WEB-DL.H264.AAC-ZeroTV.mp4
Duration : 12 min 39 s
Overall bit rate mode : Variable
Overall bit rate : 1 897 kb/s

Video
ID : 1
Format : AVC
Format/Info : Advanced Video Codec
Format profile : High@L4
Format settings : CABAC / 3 Ref Frames
Format settings, CABAC : Yes
Format settings, Reference frames : 3 frames
Codec ID : avc1
Codec ID/Info : Advanced Video Coding
Duration : 12 min 39 s
Source duration : 12 min 39 s
Bit rate : 1 621 kb/s
Maximum bit rate : 1 701 kb/s
Width : 1 920 pixels
Height : 816 pixels
Display aspect ratio : 2.35:1
Frame rate mode : Constant
Frame rate : 25.000 FPS
Color space : YUV
Chroma subsampling : 4:2:0
Bit depth : 8 bits
Scan type : Progressive
Bits/(Pixel*Frame) : 0.041
Stream size : 147 MiB (85%)
Source stream size : 154 MiB (90%)
Color range : Limited
Color primaries : BT.709
Transfer characteristics : BT.709
Matrix coefficients : BT.709
Codec configuration box : avcC

Audio
ID : 2
Format : AAC LC
Format/Info : Advanced Audio Codec Low Complexity
Codec ID : mp4a-40-2
Duration : 12 min 39 s
Bit rate mode : Variable
Bit rate : 192 kb/s
Channel(s) : 2 channels
Channel layout : L R
Sampling rate : 44.1 kHz
Frame rate : 43.066 FPS (1024 SPF)
Compression mode : Lossy
Stream size : 17.1 MiB (10%)
Default : Yes
Alternate group : 1


点击图片可查看大图

软字幕无法在截图上展现,HDR版本/杜比视界版本截图会出现颜色异常,请使用支持的设备播放!

部分资源为软字幕,移动端推荐播放器:MxPlayer,nPlayer,infuse ,其他播放器请自行尝试。

部分资源为软字幕,电脑端推荐播放器:PotPlayer,完美解码,KMPLAYER,其他播放器请自行尝试。

上传的附件:
最新回复 (0)