2021 大陆 剧情 WEB-1080P 完美世界[第151集][国语配音/中文字幕].Perfect.World.S01.2021.1080p.WEB-DL.H265.AAC-ZeroTV 0.28GB

MAY20919R 2024-02-24 02:38 919


完整标题:完美世界[第151集][国语配音/中文字幕].Perfect.World.S01.2021.1080p.WEB-DL.H265.AAC-ZeroTV 0.28GB


◎标  题 完美世界
◎译  名 完美世界动画版 / Perfect World
◎年  代 2021
◎产  地 中国大陆
◎类  别 剧情 / 动画 / 奇幻
◎语  言 汉语普通话
◎IMDb评分 8.2/10 (405人评价)
◎IMDb链接 https://www.imdb.com/title/tt14986786/
◎豆瓣评分 7.2/10 (13937人评价)
◎豆瓣链接 https://movie.douban.com/subject/35312003/
◎导  演 袁洁 Jie Yuan
◎编  剧 袁洁 Jie Yuan
      辰东 Zhendong Yang
◎演  员 锦鲤 Jinwen Chen
      赵双 Shuang Zhao
      阎么么 Meme Yan
      宣晓鸣 Xiaoming Xuan
      张惠霖 Huilin Zhang
      俊凌
      弋凡 Fan Yi
      万舒心
      刘晴 Qing Liu
      姜波 Bo Jiang

◎简  介
    动画改编自同名小说。他为修道而生,为应劫而至,他身化亿万血雨,洒落万古岁月,经历无数时空的熬炼,岁月长河的洗礼,他化万古,他化自在。看男主石昊如何一生极致辉煌,造就无尽传说。

##### MediaInfo ######
General
Complete name : 完美世界.Perfect.World.S01E151.2021.1080p.WEB-DL.H265.AAC-ZeroTV.mp4
Duration : 21 min 8 s
Overall bit rate mode : Variable
Overall bit rate : 1 864 kb/s

Video
ID : 1
Format : HEVC
Format/Info : High Efficiency Video Coding
Format profile : Main@L4@Main
Codec ID : hev1
Codec ID/Info : High Efficiency Video Coding
Duration : 21 min 8 s
Source duration : 21 min 8 s
Bit rate : 1 764 kb/s
Width : 1 920 pixels
Height : 818 pixels
Display aspect ratio : 2.35:1
Frame rate mode : Variable
Frame rate : 25.000 FPS
Minimum frame rate : 24.993 FPS
Maximum frame rate : 25.007 FPS
Color space : YUV
Chroma subsampling : 4:2:0
Bit depth : 8 bits
Bits/(Pixel*Frame) : 0.045
Stream size : 267 MiB (95%)
Source stream size : 267 MiB (95%)
Color range : Limited
Color primaries : BT.709
Transfer characteristics : BT.709
Matrix coefficients : BT.709
mdhd_Duration : 1268160
Codec configuration box : hvcC

Audio
ID : 2
Format : AAC LC
Format/Info : Advanced Audio Codec Low Complexity
Codec ID : mp4a-40-2
Duration : 21 min 8 s
Bit rate mode : Variable
Bit rate : 93.4 kb/s
Maximum bit rate : 97.0 kb/s
Channel(s) : 2 channels
Channel layout : L R
Sampling rate : 48.0 kHz
Frame rate : 46.875 FPS (1024 SPF)
Compression mode : Lossy
Stream size : 14.1 MiB (5%)
Default : Yes
Alternate group : 1


点击图片可查看大图

软字幕无法在截图上展现,HDR版本/杜比视界版本截图会出现颜色异常,请使用支持的设备播放!

部分资源为软字幕,移动端推荐播放器:MxPlayer,nPlayer,infuse ,其他播放器请自行尝试。

部分资源为软字幕,电脑端推荐播放器:PotPlayer,完美解码,KMPLAYER,其他播放器请自行尝试。

上传的附件:
最新回复 (0)