2021 大陆 剧情 WEB-4K 完美世界[第151集][国语配音/中文字幕].Perfect.World.S01.2021.2160p.WEB-DL.H265.DDP2.0-ZeroTV 1.00GB

Katt2092T 2024-02-24 02:39 2180


完整标题:完美世界[第151集][国语配音/中文字幕].Perfect.World.S01.2021.2160p.WEB-DL.H265.DDP2.0-ZeroTV 1.00GB


◎标  题 完美世界
◎译  名 完美世界动画版 / Perfect World
◎年  代 2021
◎产  地 中国大陆
◎类  别 剧情 / 动画 / 奇幻
◎语  言 汉语普通话
◎IMDb评分 8.2/10 (405人评价)
◎IMDb链接 https://www.imdb.com/title/tt14986786/
◎豆瓣评分 7.2/10 (13937人评价)
◎豆瓣链接 https://movie.douban.com/subject/35312003/
◎导  演 袁洁 Jie Yuan
◎编  剧 袁洁 Jie Yuan
      辰东 Zhendong Yang
◎演  员 锦鲤 Jinwen Chen
      赵双 Shuang Zhao
      阎么么 Meme Yan
      宣晓鸣 Xiaoming Xuan
      张惠霖 Huilin Zhang
      俊凌
      弋凡 Fan Yi
      万舒心
      刘晴 Qing Liu
      姜波 Bo Jiang

◎简  介
    动画改编自同名小说。他为修道而生,为应劫而至,他身化亿万血雨,洒落万古岁月,经历无数时空的熬炼,岁月长河的洗礼,他化万古,他化自在。看男主石昊如何一生极致辉煌,造就无尽传说。

##### MediaInfo ######
General
Unique ID : 155491667138121351640142740989014148478 (0x74FA9B14AFBAB40CBAB7EAF3F973857E)
Complete name : 完美世界.Perfect.World.S01E151.2021.2160p.WEB-DL.H265.DDP2.0-ZeroTV.mkv
Duration : 21 min 8 s
Overall bit rate : 6 792 kb/s

Video
ID : 1
Format : HEVC
Format/Info : High Efficiency Video Coding
Format profile : Main@L5@Main
Codec ID : V_MPEGH/ISO/HEVC
Duration : 21 min 8 s
Bit rate : 6 409 kb/s
Width : 3 840 pixels
Height : 1 636 pixels
Display aspect ratio : 2.35:1
Frame rate mode : Constant
Frame rate : 25.000 FPS
Color space : YUV
Chroma subsampling : 4:2:0
Bit depth : 8 bits
Bits/(Pixel*Frame) : 0.041
Stream size : 969 MiB (94%)
Writing library : Tencent-V265-1.6.9.1-p1k184g16lh64f4ra1.
Default : Yes
Forced : No
Color range : Limited
Color primaries : BT.709
Transfer characteristics : BT.709
Matrix coefficients : BT.709

Audio #1
ID : 2
Format : E-AC-3
Format/Info : Enhanced AC-3
Commercial name : Dolby Digital Plus
Codec ID : A_EAC3
Duration : 21 min 8 s
Bit rate mode : Constant
Bit rate : 256 kb/s
Channel(s) : 2 channels
Channel layout : L R
Sampling rate : 48.0 kHz
Frame rate : 31.250 FPS (1536 SPF)
Compression mode : Lossy
Delay relative to video : -42 ms
Stream size : 38.7 MiB (4%)
Title : Mandarin
Language : Chinese
Service kind : Complete Main
Default : Yes
Forced : No

Audio #2
ID : 3
Format : AAC LC
Format/Info : Advanced Audio Codec Low Complexity
Codec ID : A_AAC-2
Duration : 21 min 8 s
Bit rate : 125 kb/s
Channel(s) : 2 channels
Channel layout : L R
Sampling rate : 48.0 kHz
Frame rate : 46.875 FPS (1024 SPF)
Compression mode : Lossy
Delay relative to video : -42 ms
Stream size : 18.9 MiB (2%)
Title : Mandarin
Language : Chinese
Default : No
Forced : No


点击图片可查看大图

软字幕无法在截图上展现,HDR版本/杜比视界版本截图会出现颜色异常,请使用支持的设备播放!

部分资源为软字幕,移动端推荐播放器:MxPlayer,nPlayer,infuse ,其他播放器请自行尝试。

部分资源为软字幕,电脑端推荐播放器:PotPlayer,完美解码,KMPLAYER,其他播放器请自行尝试。

最新回复 (0)