2024 大陆 剧情 WEB-4K 春日浓情[第17集][国语配音/中文字幕].Roses.Guns.S01.2024.2160p.WEB-DL.H265.DDP2.0-ZeroTV 0.16GB

Katt2092T 2024-02-24 02:40 388


完整标题:春日浓情[第17集][国语配音/中文字幕].Roses.Guns.S01.2024.2160p.WEB-DL.H265.DDP2.0-ZeroTV 0.16GB


◎标  题 春日浓情
◎年  代 2024
◎产  地 中国大陆
◎类  别 剧情 / 爱情
◎语  言 汉语普通话
◎IMDb链接 https://www.imdb.com/title//
◎豆瓣链接 https://movie.douban.com/subject/36399412/
◎导  演 邹集城 Ji-Cheng Zou
◎演  员 戴燕妮 Yanni Dai
      代高政 Gaozheng Dai
      彭乙航 Yihang Peng
      李佳隆 JelloRio
      谭阔阔 Viola
      林亚冬 Yadong Lin
      向星雨 Xingyu Xiang
      李佳隆 Jialong Li

◎简  介
    温玉浓(戴燕妮 饰)为查清温家灭门真相,假借身份进入秦家,却与三年前的爱人秦恪闻(代高政 饰)再度相逢,任务频频受阻。秦恪闻抱着复仇的目的归来,发誓要揭开温玉浓爱情骗子的面目。两人针锋相对,却在两人一次次的周旋之中,情意更浓。

##### MediaInfo ######
General
Unique ID : 330349553776160451947467846840501442075 (0xF88702807FDFC25FA1FE01CE8C2C961B)
Complete name : 春日浓情.Roses.Guns.S01E17.2024.2160p.WEB-DL.H265.DDP2.0-ZeroTV.mkv
Duration : 13 min 22 s
Overall bit rate : 1 678 kb/s

Video
ID : 1
Format : HEVC
Format/Info : High Efficiency Video Coding
Format profile : Main@L5@Main
Codec ID : V_MPEGH/ISO/HEVC
Duration : 13 min 22 s
Bit rate : 1 295 kb/s
Width : 3 840 pixels
Height : 2 160 pixels
Display aspect ratio : 16:9
Frame rate mode : Constant
Frame rate : 25.000 FPS
Color space : YUV
Chroma subsampling : 4:2:0
Bit depth : 8 bits
Bits/(Pixel*Frame) : 0.006
Stream size : 124 MiB (77%)
Writing library : Tencent-V265-1.6.9.1-p1k184g16lh64f4ra1.
Default : Yes
Forced : No
Color range : Limited
Color primaries : BT.709
Transfer characteristics : BT.709
Matrix coefficients : BT.709

Audio #1
ID : 2
Format : E-AC-3
Format/Info : Enhanced AC-3
Commercial name : Dolby Digital Plus
Codec ID : A_EAC3
Duration : 13 min 22 s
Bit rate mode : Constant
Bit rate : 256 kb/s
Channel(s) : 2 channels
Channel layout : L R
Sampling rate : 48.0 kHz
Frame rate : 31.250 FPS (1536 SPF)
Compression mode : Lossy
Delay relative to video : -42 ms
Stream size : 24.5 MiB (15%)
Title : Mandarin
Language : Chinese
Service kind : Complete Main
Default : Yes
Forced : No

Audio #2
ID : 3
Format : AAC LC
Format/Info : Advanced Audio Codec Low Complexity
Codec ID : A_AAC-2
Duration : 13 min 22 s
Bit rate : 125 kb/s
Channel(s) : 2 channels
Channel layout : L R
Sampling rate : 48.0 kHz
Frame rate : 46.875 FPS (1024 SPF)
Compression mode : Lossy
Delay relative to video : -42 ms
Stream size : 12.0 MiB (7%)
Title : Mandarin
Language : Chinese
Default : No
Forced : No


点击图片可查看大图

软字幕无法在截图上展现,HDR版本/杜比视界版本截图会出现颜色异常,请使用支持的设备播放!

部分资源为软字幕,移动端推荐播放器:MxPlayer,nPlayer,infuse ,其他播放器请自行尝试。

部分资源为软字幕,电脑端推荐播放器:PotPlayer,完美解码,KMPLAYER,其他播放器请自行尝试。

上传的附件:
最新回复 (0)