2024 大陆 战争 WEB-1080P 我们的队伍向太阳[第13-14集][国语配音/中文字幕].2024.1080p.WEB-DL.H264.AAC-BlackTV 0.79GB

RAY20920M 2024-04-11 20:58 777


完整标题:我们的队伍向太阳[第13-14集][国语配音/中文字幕].2024.1080p.WEB-DL.H264.AAC-BlackTV 0.79GB




◎标  题 我们的队伍向太阳
◎年  代 2024
◎产  地 中国大陆
◎类  别 战争
◎语  言 汉语普通话
◎IMDb链接 https://www.imdb.com/title/tt31961581/
◎豆瓣链接 https://movie.douban.com/subject/35357115/
◎导  演 倪祖铭 Zuming Ni
      柏杉 Shan Bai
◎编  剧 王朝柱 Chaozhu Wang
◎演  员 唐国强 Guoqiang Tang
      刘劲 Jin Liu
      王伍福 Wufu Wang
      马晓伟 Xiaowei Ma
      柳丙璐 Binglu Liu
      徐明森 Mingsen Xu

◎简  介
    通过1947年2月到全国解放,一共两年多的时间跨度,从傅作义占领张家口开始,直至整整两年后,在毛主席高超军事思想的指挥下,结合全国各个战场的形势,重组杨罗耿兵团,贯彻执行党中央毛主席‘打运动战’的战略方针,于艰苦逆境中同强势敌人英勇作战,积极配合东北战场的辽沈战役,与其他战场相互呼应,使全国的解放战争战场连成一片,彻底粉碎蒋介石反动集团妄图用六个月时间消灭共产党的企图,使全国的解放战争取得了最后胜利。

##### MediaInfo ######
General
Unique ID : 141092888252492141450712869372436289776 (0x6A258078C0F454FF5D67294E7B3A18F0)
Complete name : Wo.Men.De.Dui.Wu.Xiang.Tai.Yang.S01E13.2024.1080p.WEB-DL.H264.AAC-BlackTV.mkv
Duration : 45 min 25 s
Overall bit rate : 1 305 kb/s

Video
ID : 1
Format : AVC
Format/Info : Advanced Video Codec
Format profile : High@L5
Format settings : CABAC / 5 Ref Frames
Format settings, CABAC : Yes
Format settings, Reference frames : 5 frames
Codec ID : V_MPEG4/ISO/AVC
Duration : 45 min 25 s
Bit rate : 1 207 kb/s
Width : 1 920 pixels
Height : 1 080 pixels
Display aspect ratio : 16:9
Frame rate mode : Constant
Frame rate : 25.000 FPS
Color space : YUV
Chroma subsampling : 4:2:0
Bit depth : 8 bits
Scan type : Progressive
Bits/(Pixel*Frame) : 0.023
Stream size : 392 MiB (92%)
Language : Chinese
Default : Yes
Forced : No
Color range : Limited
Color primaries : BT.709
Transfer characteristics : BT.709
Matrix coefficients : BT.709
VENDOR_ID : [0][0][0][0]

Audio
ID : 2
Format : AAC LC
Format/Info : Advanced Audio Codec Low Complexity
Codec ID : A_AAC-2
Duration : 45 min 24 s
Bit rate : 96.0 kb/s
Channel(s) : 2 channels
Channel layout : L R
Sampling rate : 44.1 kHz
Frame rate : 43.066 FPS (1024 SPF)
Compression mode : Lossy
Stream size : 31.2 MiB (7%)
Title : Mandarin [AAC2.0]
Language : Chinese
Default : No
Forced : No
VENDOR_ID : [0][0][0][0]


点击图片可查看大图

软字幕无法在截图上展现,HDR版本/杜比视界版本截图会出现颜色异常,请使用支持的设备播放!

部分资源为软字幕,移动端推荐播放器:MxPlayer,nPlayer,infuse ,其他播放器请自行尝试。

部分资源为软字幕,电脑端推荐播放器:PotPlayer,完美解码,KMPLAYER,其他播放器请自行尝试。

下载端推荐纯BT下载软件:qBittorrent,Bitcomet,uTorrent ,其他下载软件请自行尝试。不支持吸血迅雷。

上传的附件:
最新回复 (0)