2024 大陆 剧情 WEB-1080P 承欢记[第13-14集][国语音轨/简繁英字幕].Best.Choice.Ever.S01.2024.1080p.IQ.WEB-DL.H264.AAC-BlackTV 1.32GB

Katt2092T 2024-04-14 22:48 765


完整标题:承欢记[第13-14集][国语音轨/简繁英字幕].Best.Choice.Ever.S01.2024.1080p.IQ.WEB-DL.H264.AAC-BlackTV 1.32GB




◎标  题 承欢记
◎年  代 2024
◎产  地 中国大陆
◎类  别 剧情 / 爱情
◎语  言 汉语普通话
◎IMDb链接 https://www.imdb.com/title/tt28183054/
◎豆瓣链接 https://movie.douban.com/subject/36145248/
◎导  演 田宇 Yu Tian
      王成欣 Chengxin Wang
◎编  剧 李晶凌 Jingling Li
      伍湘玲 Shinning WU
      胡晓钰 Xiaoyu Hu
◎演  员 杨紫 Andy Yang
      许凯 Kai Xu
      牛骏峰 Junfeng Niu
      许龄月 Amelie Xu
      张耀 Yao Zhang
      何赛飞 Saifei He
      姚安濂 Anlian Yao
      吴彦姝 Yanshu Wu
      孙之鸿 Zhihong Sun
      张彦博 Yanbo Zhang

◎简  介
    该剧改编自亦舒经典同名小说。   出身于上海普通人家的95后女孩麦承欢(杨紫 饰),在母亲刘婉玉(何赛飞 饰)的催促下,与男友辛家亮(牛骏峰 饰)议婚。但辛家优渥的经济条件让这段原本平等的感情关系变得失衡,同时,麦母对女儿终身大事的过度插手,加速了麦承欢和辛家亮的分手。在孝顺父母和忠于自我之间,麦承欢艰难求索,她逐步从母亲强势的关爱中挣脱,在 工作上更专心进取。麦承欢的蜕变得到了继祖母的认可,把自己最看重的酒店经营重任托付给她。继祖母的亲孙、职业酒店经理人姚志明(许凯 饰)在与麦承欢的合作中逐渐对她理解并认同,俩人成为工作伙伴,携手并进。而在生活中,姚志明被麦家烟火气之下的真情包围,与麦承欢的感情逐渐升温。从“承欢膝下”到“成就自我”,麦承欢走出了一条独属于自己的不平凡的成长之路。

##### MediaInfo ######
General
Unique ID : 212951788477446445037768601804999346848 (0xA03505CA072CEE58F655501DEC49CAA0)
Complete name : Best.Choice.Ever.S01E13.2024.1080p.IQ.WEB-DL.H264.AAC-BlackTV.mkv
Duration : 45 min 25 s
Overall bit rate : 2 053 kb/s

Video
ID : 1
Format : AVC
Format/Info : Advanced Video Codec
Format profile : High@L4
Format settings : CABAC / 3 Ref Frames
Format settings, CABAC : Yes
Format settings, Reference frames : 3 frames
Codec ID : V_MPEG4/ISO/AVC
Duration : 45 min 25 s
Bit rate : 1 860 kb/s
Width : 1 920 pixels
Height : 1 080 pixels
Display aspect ratio : 16:9
Frame rate mode : Constant
Frame rate : 25.000 FPS
Color space : YUV
Chroma subsampling : 4:2:0
Bit depth : 8 bits
Scan type : Progressive
Bits/(Pixel*Frame) : 0.036
Stream size : 604 MiB (91%)
Language : Chinese
Default : Yes
Forced : No
Color range : Limited
Color primaries : BT.709
Transfer characteristics : BT.709
Matrix coefficients : BT.709

Audio
ID : 2
Format : AAC LC
Format/Info : Advanced Audio Codec Low Complexity
Codec ID : A_AAC-2
Duration : 45 min 25 s
Bit rate : 192 kb/s
Channel(s) : 2 channels
Channel layout : L R
Sampling rate : 44.1 kHz
Frame rate : 43.066 FPS (1024 SPF)
Compression mode : Lossy
Stream size : 61.8 MiB (9%)
Title : Mandarin [AAC2.0]
Language : Chinese
Default : No
Forced : No

Text #1
ID : 3
Format : UTF-8
Codec ID : S_TEXT/UTF8
Codec ID/Info : UTF-8 Plain Text
Duration : 40 min 47 s
Bit rate : 70 b/s
Frame rate : 0.482 FPS
Count of elements : 1180
Stream size : 21.1 KiB (0%)
Title : Simplified Chinese
Language : Chinese
Default : Yes
Forced : No

Text #2
ID : 4
Format : UTF-8
Codec ID : S_TEXT/UTF8
Codec ID/Info : UTF-8 Plain Text
Duration : 40 min 47 s
Bit rate : 70 b/s
Frame rate : 0.482 FPS
Count of elements : 1180
Stream size : 21.1 KiB (0%)
Title : Traditional Chinese
Language : Chinese
Default : No
Forced : No

Text #3
ID : 5
Format : UTF-8
Codec ID : S_TEXT/UTF8
Codec ID/Info : UTF-8 Plain Text
Duration : 43 min 5 s
Bit rate : 84 b/s
Frame rate : 0.468 FPS
Count of elements : 1210
Stream size : 26.5 KiB (0%)
Title : English
Language : English
Default : No
Forced : No


点击图片可查看大图

软字幕无法在截图上展现,HDR版本/杜比视界版本截图会出现颜色异常,请使用支持的设备播放!

部分资源为软字幕,移动端推荐播放器:MxPlayer,nPlayer,infuse ,其他播放器请自行尝试。

部分资源为软字幕,电脑端推荐播放器:PotPlayer,完美解码,KMPLAYER,其他播放器请自行尝试。

下载端推荐纯BT下载软件:qBittorrent,Bitcomet,uTorrent ,其他下载软件请自行尝试。不支持吸血迅雷。

上传的附件:
最新回复 (0)