2024 韩国 剧情 WEB-1080P Hide[第13-14集][中文字幕].HIDE.S01.1080p.HamiVideo.WEB-DL.AAC2.0.H.264-BlackTV 3.38GB

RAY20920M 2024-04-15 00:22 991


完整标题:Hide[第13-14集][中文字幕].HIDE.S01.1080p.HamiVideo.WEB-DL.AAC2.0.H.264-BlackTV 3.38GB




◎标  题 Hide
◎片  名 하이드
◎年  代 2024
◎产  地 韩国
◎类  别 剧情 / 悬疑 / 惊悚
◎语  言 韩语
◎IMDb链接 https://www.imdb.com/title//
◎豆瓣链接 https://movie.douban.com/subject/36382119/
◎导  演 金东辉 Dong-hwi Kim
◎演  员 李宝英 Bo-young Lee
      李茂生 Moo-Saeng Lee
      朴缮羽 Sun-woo Park
      金浩媛 Ho-won Kim

◎简  介
    该剧改编自英国作品,讲述了一个消失的人和一个追逐真相的女人的追踪惊悚故事。

##### MediaInfo ######
General
Unique ID : 117224240438200508233677279677397463245 (0x58309146D09617FD37CB34F71061F0CD)
Complete name : HIDE.S01E13.1080p.HamiVideo.WEB-DL.AAC2.0.H.264-BlackTV.mkv
Duration : 31 min 7 s
Overall bit rate : 7 979 kb/s

Video
ID : 1
Format : AVC
Format/Info : Advanced Video Codec
Format profile : High@L4
Format settings : CABAC / 3 Ref Frames
Format settings, CABAC : Yes
Format settings, Reference frames : 3 frames
Format settings, GOP : M=1, N=30
Codec ID : V_MPEG4/ISO/AVC
Duration : 31 min 7 s
Bit rate : 7 872 kb/s
Width : 1 920 pixels
Height : 1 080 pixels
Display aspect ratio : 16:9
Frame rate mode : Constant
Frame rate : 29.970 (30000/1001) FPS
Color space : YUV
Chroma subsampling : 4:2:0
Bit depth : 8 bits
Scan type : Progressive
Bits/(Pixel*Frame) : 0.127
Stream size : 1.71 GiB (98%)
Writing library : x264 core 157 r2935 545de2f
Encoding settings : cabac=1 / ref=3 / deblock=1:0:0 / analyse=0x3:0x113 / me=hex / subme=7 / psy=1 / psy_rd=1.00:0.00 / mixed_ref=1 / me_range=16 / chroma_me=1 / trellis=1 / 8x8dct=1 / cqm=0 / deadzone=21,11 / fast_pskip=1 / chroma_qp_offset=-2 / threads=34 / lookahead_threads=5 / sliced_threads=0 / nr=0 / decimate=1 / interlaced=0 / bluray_compat=0 / constrained_intra=0 / bframes=0 / weightp=2 / keyint=30 / keyint_min=16 / scenecut=0 / intra_refresh=0 / rc_lookahead=30 / rc=abr / mbtree=1 / bitrate=7872 / ratetol=1.0 / qcomp=0.60 / qpmin=0 / qpmax=69 / qpstep=4 / vbv_maxrate=8000 / vbv_bufsize=7872 / nal_hrd=none / filler=0 / ip_ratio=1.40 / aq=1:1.00
Language : Korean
Default : Yes
Forced : No

Audio
ID : 2
Format : AAC LC
Format/Info : Advanced Audio Codec Low Complexity
Codec ID : A_AAC-2
Duration : 31 min 7 s
Bit rate : 128 kb/s
Channel(s) : 2 channels
Channel layout : L R
Sampling rate : 48.0 kHz
Frame rate : 46.875 FPS (1024 SPF)
Compression mode : Lossy
Stream size : 28.5 MiB (2%)
Language : Korean
Default : Yes
Forced : No


点击图片可查看大图

软字幕无法在截图上展现,HDR版本/杜比视界版本截图会出现颜色异常,请使用支持的设备播放!

部分资源为软字幕,移动端推荐播放器:MxPlayer,nPlayer,infuse ,其他播放器请自行尝试。

部分资源为软字幕,电脑端推荐播放器:PotPlayer,完美解码,KMPLAYER,其他播放器请自行尝试。

下载端推荐纯BT下载软件:qBittorrent,Bitcomet,uTorrent ,其他下载软件请自行尝试。不支持吸血迅雷。

上传的附件:
最新回复 (0)