2024 韩国 剧情 WEB-1080P 泪之女王[第12集][无字片源].Queen.of.Tears.S01.1080p.TVING.WEB-DL.AAC2.0.H.264-BlackTV 2.83GB

RAY20920M 2024-04-15 00:29 10805


完整标题:泪之女王[第12集][无字片源].Queen.of.Tears.S01.1080p.TVING.WEB-DL.AAC2.0.H.264-BlackTV 2.83GB




◎标  题 泪之女王
◎译  名 眼泪女王 / Queen of Tears
◎片  名 눈물의 여왕
◎年  代 2024
◎产  地 韩国
◎类  别 剧情 / 爱情
◎语  言 韩语
◎IMDb链接 https://www.imdb.com/title/tt27668559/
◎豆瓣链接 https://movie.douban.com/subject/35861696/
◎导  演 金希元 Kim Hee-won
      张荣佑 Young-woo Jang
◎编  剧 朴智恩 Ji-eun Park
◎演  员 金秀贤 Soo-hyun Kim
      金智媛 Ji-won Kim
      朴成焄 Sung-hoon Park
      郭东延 Gwak Dong Yeon
      李主傧 Joo-bin Lee
      宋仲基 Joong-ki Song
      金甲洙 Kap-su Kim
      李美淑 Mi-suk Lee
      郑镇荣 Jin-yeong Jeong
      罗映姫 Young-hee Na
      金贞兰 Jeong-nan Kim
      全裴修 Bae-soo Jeon
      黄英熙 Young-hee Hwang
      金道贤 Do-hyun Kim
      张允柱 Yoon-ju Jang
      金周灵 Joo-ryeong Kim
      尹普美 Bo-mi Yoon
      吴正世 Jeong-se Oh

◎简  介
    “百货女王”洪海仁(金智媛饰)与“超市王子”白贤宇(金秀贤饰)的婚姻遭遇危机,危险状况持续到两人的爱情如奇迹般再次绽放。

##### MediaInfo ######
General
Unique ID : 332580436107122194457314693677484271885 (0xFA34A97E2E226B6EB556DBF4B446E90D)
Complete name : Queen.of.Tears.S01E12.1080p.TVING.WEB-DL.AAC2.0.H.264-BlackTV.mkv
Duration : 1 h 32 min
Overall bit rate mode : Variable
Overall bit rate : 4 384 kb/s

Video
ID : 1
Format : AVC
Format/Info : Advanced Video Codec
Format profile : High@L4
Format settings : CABAC / 2 Ref Frames
Format settings, CABAC : Yes
Format settings, Reference frames : 2 frames
Codec ID : V_MPEG4/ISO/AVC
Duration : 1 h 32 min
Bit rate mode : Variable
Bit rate : 4 254 kb/s
Maximum bit rate : 8 000 kb/s
Width : 1 920 pixels
Height : 1 080 pixels
Display aspect ratio : 16:9
Frame rate mode : Constant
Frame rate : 29.970 (30000/1001) FPS
Color space : YUV
Chroma subsampling : 4:2:0
Bit depth : 8 bits
Scan type : Progressive
Bits/(Pixel*Frame) : 0.068
Stream size : 2.75 GiB (97%)
Language : Korean
Default : Yes
Forced : No

Audio
ID : 2
Format : AAC LC
Format/Info : Advanced Audio Codec Low Complexity
Codec ID : A_AAC-2
Duration : 1 h 32 min
Bit rate : 128 kb/s
Channel(s) : 2 channels
Channel layout : L R
Sampling rate : 48.0 kHz
Frame rate : 46.875 FPS (1024 SPF)
Compression mode : Lossy
Stream size : 84.7 MiB (3%)
Default : Yes
Forced : No


点击图片可查看大图

软字幕无法在截图上展现,HDR版本/杜比视界版本截图会出现颜色异常,请使用支持的设备播放!

部分资源为软字幕,移动端推荐播放器:MxPlayer,nPlayer,infuse ,其他播放器请自行尝试。

部分资源为软字幕,电脑端推荐播放器:PotPlayer,完美解码,KMPLAYER,其他播放器请自行尝试。

下载端推荐纯BT下载软件:qBittorrent,Bitcomet,uTorrent ,其他下载软件请自行尝试。不支持吸血迅雷。

上传的附件:
最新回复 (2)