2021 日本 剧情 WEB-1080P 死神少爷与黑女仆[第02集][中文字幕].Shinigami.Bocchan.to.Kuro.Maid.S03.2024.1080p.Baha.WEB-DL.x264.AAC-ZeroTV 0.43GB

MAY20919R 2024-04-15 00:31 363


完整标题:死神少爷与黑女仆[第02集][中文字幕].Shinigami.Bocchan.to.Kuro.Maid.S03.2024.1080p.Baha.WEB-DL.x264.AAC-ZeroTV 0.43GB




◎标  题 死神少爷与黑女仆
◎译  名 The Duke of Death and His Maid
◎片  名 死神坊ちゃんと黒メイド
◎年  代 2021
◎产  地 日本
◎类  别 剧情 / 动画 / 奇幻
◎语  言 日语
◎IMDb评分 7.2/10 (810人评价)
◎IMDb链接 https://www.imdb.com/title/tt13971512/
◎豆瓣评分 7.7/10 (4478人评价)
◎豆瓣链接 https://movie.douban.com/subject/35351825/
◎导  演 山川吉树 Yoshiki Yamakawa
◎编  剧 白根秀树 Hideki Shirane
◎演  员 花江夏树 Natsuki Hanae
      真野步 Mano Ayumi
      水濑祈 Inori Minase
      羊宫妃那 Hina Youmiya
      手冢宏通 Tezuka Hiromichi
      榊原良子 Yoshiko Sakakibara
      甲斐田裕子 Yûko Kaida

◎简  介
    本作讲述从小就被诅咒「只要碰触到东西就全都会死亡」的贵族少爷,以及唯一愿意陪伴且不时性骚扰他的女仆爱丽丝,两人虽两情相悦却不能触碰彼此的恋爱故事。

##### MediaInfo ######
General
Complete name : Shinigami.Bocchan.to.Kuro.Maid.S03E02.2024.1080p.Baha.WEB-DL.x264.AAC-ZeroTV.mp4
Duration : 23 min 40 s
Overall bit rate : 2 564 kb/s

Video
ID : 1
Format : AVC
Format/Info : Advanced Video Codec
Format profile : High@L5
Format settings : CABAC / 4 Ref Frames
Format settings, CABAC : Yes
Format settings, Reference frames : 4 frames
Codec ID : avc1
Codec ID/Info : Advanced Video Coding
Duration : 23 min 40 s
Source duration : 23 min 40 s
Bit rate : 2 263 kb/s
Width : 1 920 pixels
Height : 1 080 pixels
Display aspect ratio : 16:9
Frame rate mode : Variable
Frame rate : 23.976 (24000/1001) FPS
Minimum frame rate : 23.974 FPS
Maximum frame rate : 23.981 FPS
Color space : YUV
Chroma subsampling : 4:2:0
Bit depth : 8 bits
Scan type : Progressive
Bits/(Pixel*Frame) : 0.046
Stream size : 383 MiB (88%)
Source stream size : 383 MiB (88%)
Writing library : x264 core 161 r3018 db0d417
Encoding settings : cabac=1 / ref=4 / deblock=1:-1:-1 / analyse=0x3:0x113 / me=umh / subme=9 / psy=1 / psy_rd=1.00:0.00 / mixed_ref=1 / me_range=16 / chroma_me=1 / trellis=2 / 8x8dct=1 / cqm=0 / deadzone=21,11 / fast_pskip=1 / chroma_qp_offset=-2 / threads=24 / lookahead_threads=2 / sliced_threads=0 / nr=0 / decimate=1 / interlaced=0 / bluray_compat=0 / constrained_intra=0 / bframes=8 / b_pyramid=2 / b_adapt=1 / b_bias=0 / direct=3 / weightb=1 / open_gop=0 / weightp=2 / keyint=250 / keyint_min=23 / scenecut=40 / intra_refresh=0 / rc_lookahead=50 / rc=crf / mbtree=1 / crf=21.0 / qcomp=0.60 / qpmin=0 / qpmax=69 / qpstep=4 / vbv_maxrate=12000 / vbv_bufsize=80000 / crf_max=0.0 / nal_hrd=none / filler=0 / ip_ratio=1.40 / aq=3:1.00
Codec configuration box : avcC

Audio
ID : 2
Format : AAC LC
Format/Info : Advanced Audio Codec Low Complexity
Codec ID : mp4a-40-2
Duration : 23 min 40 s
Bit rate mode : Constant
Bit rate : 296 kb/s
Channel(s) : 2 channels
Channel layout : L R
Sampling rate : 48.0 kHz
Frame rate : 46.875 FPS (1024 SPF)
Compression mode : Lossy
Stream size : 50.1 MiB (12%)
Language : Japanese
Default : Yes
Alternate group : 1


点击图片可查看大图

软字幕无法在截图上展现,HDR版本/杜比视界版本截图会出现颜色异常,请使用支持的设备播放!

部分资源为软字幕,移动端推荐播放器:MxPlayer,nPlayer,infuse ,其他播放器请自行尝试。

部分资源为软字幕,电脑端推荐播放器:PotPlayer,完美解码,KMPLAYER,其他播放器请自行尝试。

下载端推荐纯BT下载软件:qBittorrent,Bitcomet,uTorrent ,其他下载软件请自行尝试。不支持吸血迅雷。

上传的附件:
最新回复 (0)