2024 大陆 剧情 WEB-4K 川流[60帧率版本][第26-27集][国语配音/中文字幕].A.Hero.Without.a.Name.S01.2024.2160p.WEB-DL.H265.60fps.AAC-BlackTV 2.84G

Katt2092T 2024-04-15 00:38 425


完整标题:川流[60帧率版本][第26-27集][国语配音/中文字幕].A.Hero.Without.a.Name.S01.2024.2160p.WEB-DL.H265.60fps.AAC-BlackTV 2.84GB




◎标  题 川流
◎年  代 2024
◎产  地 中国大陆
◎类  别 剧情
◎IMDb链接 https://www.imdb.com/title/tt31961575/
◎豆瓣链接 https://movie.douban.com/subject/35472003/
◎导  演 韦大军 Dajun Wei
◎演  员 张铎 Duo Zhang
       余心恬 Xintian Yu
       韩童生 Tongsheng Han
       尚铁龙 Tielong Shang

◎简  介
    二十世纪四十年代,成都。大学生郑笑南是个血性青年,目睹无辜民众死于日机轰炸、在大学共产党员同学的影响下,弃笔从戎、投身疆场。与日军一次恶战中,川军小分队全军覆没,郑笑南被八路军搭救并成为其中一员。在这个大熔炉中,他磨练了意志、坚定了信仰,成长为一名共产党员。解放战争时期,郑笑南肩负党的使命重返川军回到成都,一场斗智斗勇的战斗由此展开。凭借抗日英雄的身份,他策动将领起义、保护进步人士,在紧要关头成功化解了危机,瓦解敌人阴谋,为成都的和平解放贡献出青春热血。黎明到来,解放军入城。郑笑南完成了使命,收获了爱情。

##### MediaInfo ######
General
Unique ID                                : 296149844869414287485718890161367634294 (0xDECC62AB46A63B03BA7AF4A298AB5176)
Complete name                            : A.Hero.Without.a.Name.S01E26.2024.2160p.WEB-DL.H265.60fps.AAC-BlackTV.mkv
Duration                                 : 45 min 6 s
Overall bit rate                         : 4 426 kb/s

Video
ID                                       : 1
Format                                   : HEVC
Format/Info                              : High Efficiency Video Coding
Format profile                           : Main@L5.1@Main
Codec ID                                 : V_MPEGH/ISO/HEVC
Duration                                 : 45 min 6 s
Bit rate                                 : 4 230 kb/s
Width                                    : 3 840 pixels
Height                                   : 2 160 pixels
Display aspect ratio                     : 16:9
Frame rate mode                          : Constant
Frame rate                               : 60.000 FPS
Color space                              : YUV
Chroma subsampling                       : 4:2:0
Bit depth                                : 8 bits
Bits/(Pixel*Frame)                       : 0.008
Stream size                              : 1.33 GiB (96%)
Language                                 : Chinese
Default                                  : Yes
Forced                                   : No
Color range                              : Limited
Color primaries                          : BT.709
Transfer characteristics                 : BT.709
Matrix coefficients                      : BT.709
VENDOR_ID                                : [0][0][0][0]

Audio
ID                                       : 2
Format                                   : AAC LC
Format/Info                              : Advanced Audio Codec Low Complexity
Codec ID                                 : A_AAC-2
Duration                                 : 45 min 6 s
Bit rate                                 : 192 kb/s
Channel(s)                               : 2 channels
Channel layout                           : L R
Sampling rate                            : 44.1 kHz
Frame rate                               : 43.066 FPS (1024 SPF)
Compression mode                         : Lossy
Stream size                              : 62.0 MiB (4%)
Title                                    : Mandarin [AAC2.0]
Language                                 : Chinese
Default                                  : No
Forced                                   : No
VENDOR_ID                                : [0][0][0][0]


点击图片可查看大图

软字幕无法在截图上展现,HDR版本/杜比视界版本截图会出现颜色异常,请使用支持的设备播放!

部分资源为软字幕,移动端推荐播放器:MxPlayer,nPlayer,infuse ,其他播放器请自行尝试。

部分资源为软字幕,电脑端推荐播放器:PotPlayer,完美解码,KMPLAYER,其他播放器请自行尝试。

下载端推荐纯BT下载软件:qBittorrent,Bitcomet,uTorrent ,其他下载软件请自行尝试。不支持吸血迅雷。

上传的附件:
最新回复 (0)