2024 香港 剧情 WEB-1080P 逆天奇案2[第06-10集][国语音轨/简繁英字幕].Sinister.Beings.S02.1080p.MyTVSuper.WEB-DL.AAC2.0.H.265-BlackTV 5.96GB

MAY20919R 2024-04-15 10:23 975


完整标题:逆天奇案2[第06-10集][国语音轨/简繁英字幕].Sinister.Beings.S02.1080p.MyTVSuper.WEB-DL.AAC2.0.H.265-BlackTV 5.96GB




◎标  题 逆天奇案2
◎译  名 Sinister Beings II
◎片  名 逆天奇案II
◎年  代 2024
◎产  地 中国香港
◎类  别 剧情 / 爱情 / 悬疑 / 犯罪
◎语  言 粤语
◎IMDb链接 https://www.imdb.com/title/tt30421637/
◎豆瓣链接 https://movie.douban.com/subject/35772380/
◎导  演 刘家豪 Ka-Ho Lau
      陈志江 Zhijiang Chen
      张乾文 Kin-man Cheung
◎编  剧 岑国荣 Sham Kwok Wing
      孙浩浩 Ho-ho Shuen
      方家逸 Jiayi Fang
      苏婷 Ting Su
◎演  员 陈展鹏 Ruco Chan
      林夏薇 Rosina Lin
      黄智贤 Chi-yin Wong
      蒋祖曼 Joman Chiang
      张颕康 Wing-Hong Cheung
      刘佩玥 Moon Lau Pui Yuet
      方力申 Lik-Sun Fong
      冯盈盈 Crystal Fung
      高钧贤 Matthew Kwan Yin Ko
      姜大卫 David Chiang
      麦玲玲 Lingling Mak
      梁小冰 Siu-bing Leung
      李国麟 Kwok-Lun Lee
      陈嘉辉 Ka-Fai Chan
      张雷 Mark Cheung Lui
      黄庭锋 Telford Wong
      郭柏妍 Rosita Kwok
      郑俊弘 Frederick Cheng
      董敬文 Terence Tung
      李启杰 Akai Lee
      林子超 Andy Lin
      赵璧渝 Osanna Chiu
      海俊杰 Gabriel Harrison
      容天佑 Tin-yau Yung
      朱汇林 Chu Hui-Lin
      张子丰 Cheung Frederick Kurti
      张本立 Poon Lap Cheung
      尹光 Gwong Wang
      菊梓乔 Haley Chan
      黄韵材 Wan Choi Wong
      陈少邦 Bond Chan
      罗毓仪 Yuki Law Yuk Yee
      庄思明 Lisa Chong
      谢雪心 Susan Tse
      林伟 Vincent Lam
      李龙基 Loong Kei Lee
      黎燕珊 Yin San Lai
      潘志文 Ji-man Poon
      刘桂芳 Kitty Lau Kwai Fong
      陈狄克 Ti-ko Chen
      吴香伦 Helen Ng
      陈荣峻 Wing Chun Chan
      梁皓楷 Jerry Leung
      阮嘉敏 Mandy Yuen
      周丽欣 Doris Chow
      吴紫韵 Purple Ng
      杜燕歌 Yin-gor To
      姚宏远 Hongyuan Yao
      卫志豪 Michael Wai
      黄耀煌 Terrence Wong
      方绍聪 Milkson Fong
      王菲 Fei Wong
      黄嘉乐 Stephen Ka Lok Wong
      林熹瞳 Rachel Lam
      吴沚默 MoMo Wu
      刘纬民 Ricky Lau
      王贤志 Vinci Wong
      马国明 Kwok-Ming Ma
      炎明熹 Gigi Wang
      杜大伟 Tai Wai To
      谭淑莹 Anita Tam Shuk Ying

◎简  介
    O记干探许浚森(陈展鹏饰)、沈韦力(黄智贤饰)奉命调查跨国罪案期间,得悉「杀虎案」幕后黑手魏子乐(张颖康饰)落网前,曾将神秘讯息发送至暗网,并汇出巨额加密货币。不久有神秘人策动恐袭,浚森与韦力纵于天才教授唐冠峰(方力申饰)协助下破案,却惊觉子乐背后藏着更大阴谋!他们要竭力阻止子乐的同时,也遇到龙头棍风暴、空屋藏白骨、重犯越狱等奇案,能否一一扫除险阻?工作上面对的危即升级,感情亦遇挑战,浚森望跟前女友马颖思(林夏薇饰)复合,但困难重重令二人关系出现变数……

##### MediaInfo ######
General
Unique ID : 136137526075678363294013456946794920308 (0x666B2240DFAD680810EA68445D30F974)
Complete name : Sinister.Beings.S02E06.1080p.MyTVSuper.WEB-DL.AAC2.0.H.265-BlackTV.mkv
Duration : 43 min 56 s
Overall bit rate : 3 901 kb/s

Video
ID : 1
Format : HEVC
Format/Info : High Efficiency Video Coding
Format profile : Main@L4@Main
Codec ID : V_MPEGH/ISO/HEVC
Duration : 43 min 56 s
Bit rate : 3 770 kb/s
Width : 1 920 pixels
Height : 1 080 pixels
Display aspect ratio : 16:9
Frame rate mode : Constant
Frame rate : 25.000 FPS
Color space : YUV
Chroma subsampling : 4:2:0
Bit depth : 8 bits
Bits/(Pixel*Frame) : 0.073
Stream size : 1.16 GiB (97%)
Writing library : VOLOHEVC
Default : Yes
Forced : No
Color range : Limited

Audio
ID : 2
Format : AAC LC
Format/Info : Advanced Audio Codec Low Complexity
Codec ID : A_AAC-2
Duration : 43 min 56 s
Bit rate : 128 kb/s
Channel(s) : 2 channels
Channel layout : L R
Sampling rate : 48.0 kHz
Frame rate : 46.875 FPS (1024 SPF)
Compression mode : Lossy
Stream size : 40.2 MiB (3%)
Title : 粵語
Language : Chinese
Default : Yes
Forced : No

Text #1
ID : 3
Format : UTF-8
Codec ID : S_TEXT/UTF8
Codec ID/Info : UTF-8 Plain Text
Duration : 41 min 26 s
Bit rate : 96 b/s
Frame rate : 0.264 FPS
Count of elements : 656
Stream size : 29.4 KiB (0%)
Title : English
Language : English
Default : No
Forced : No

Text #2
ID : 4
Format : UTF-8
Codec ID : S_TEXT/UTF8
Codec ID/Info : UTF-8 Plain Text
Duration : 41 min 12 s
Bit rate : 82 b/s
Frame rate : 0.438 FPS
Count of elements : 1082
Stream size : 24.9 KiB (0%)
Title : Simplified
Language : Chinese
Default : No
Forced : No

Text #3
ID : 5
Format : UTF-8
Codec ID : S_TEXT/UTF8
Codec ID/Info : UTF-8 Plain Text
Duration : 41 min 12 s
Bit rate : 82 b/s
Frame rate : 0.438 FPS
Count of elements : 1082
Stream size : 24.9 KiB (0%)
Title : Traditional
Language : Chinese
Default : Yes
Forced : No


点击图片可查看大图

软字幕无法在截图上展现,HDR版本/杜比视界版本截图会出现颜色异常,请使用支持的设备播放!

部分资源为软字幕,移动端推荐播放器:MxPlayer,nPlayer,infuse ,其他播放器请自行尝试。

部分资源为软字幕,电脑端推荐播放器:PotPlayer,完美解码,KMPLAYER,其他播放器请自行尝试。

下载端推荐纯BT下载软件:qBittorrent,Bitcomet,uTorrent ,其他下载软件请自行尝试。不支持吸血迅雷。

上传的附件:
最新回复 (0)