2024 日本 剧情 WEB-1080P 夜樱家的大作战[第02集][中文字幕].Yozakurasan.Chi.no.Daisakusen.S01.2024.1080p.Viu.WEB-DL.H264.AAC-ZeroTV 0.36GB

RAY20920M 2024-04-15 10:24 988


完整标题:夜樱家的大作战[第02集][中文字幕].Yozakurasan.Chi.no.Daisakusen.S01.2024.1080p.Viu.WEB-DL.H264.AAC-ZeroTV 0.36GB




◎标  题 夜樱家的大作战
◎片  名 夜桜さんちの大作戦
◎年  代 2024
◎产  地 日本
◎类  别 剧情 / 动作 / 动画
◎语  言 日语
◎IMDb链接 https://www.imdb.com/title//
◎豆瓣链接 https://movie.douban.com/subject/36172038/
◎导  演 凑未来 Minato Mirai
◎编  剧 凑未来 Minato Mirai
◎演  员 川岛零士 Kawashima Reiji
      本渡枫 Kaede Hondo
      小西克幸 Katsuyuki Konishi
      鬼头明里 Akari Kitō
      兴津和幸 Kazuyuki Okitsu
      悠木碧 Aoi Yuki
      松冈祯丞 Yoshitsugu Matsuoka
      内山夕实 Yumi Uchiyama
      伊濑茉莉也 Mariya Ise
      滨野大辉 Daiki Hamano
      内山昂辉 Koki Uchiyama
      朴璐美 Romi Park

◎简  介
    《夜樱家的大作战》是权平未著作于2019年8月26日起在集英社期下周刊漫画杂志《周刊少年Jump》上连载的漫画,单行本日文版由集英社出版发行。近日官宣动画化决定!

##### MediaInfo ######
General
Unique ID : 38610320641843546509195276507756710821 (0x1D0C13C7E0DCF415F9D18031B3E54BA5)
Complete name : Yozakurasan.Chi.no.Daisakusen.S01E02.2024.1080p.Viu.WEB-DL.H264.AAC-ZeroTV.mkv
Duration : 23 min 47 s
Overall bit rate mode : Variable
Overall bit rate : 2 167 kb/s

Video
ID : 1
Format : AVC
Format/Info : Advanced Video Codec
Format profile : High@L4.1
Format settings : CABAC / 4 Ref Frames
Format settings, CABAC : Yes
Format settings, Reference frames : 4 frames
Codec ID : V_MPEG4/ISO/AVC
Duration : 23 min 47 s
Bit rate mode : Variable
Bit rate : 2 068 kb/s
Maximum bit rate : 4 500 kb/s
Width : 1 920 pixels
Height : 1 080 pixels
Display aspect ratio : 16:9
Frame rate mode : Constant
Frame rate : 23.976 (24000/1001) FPS
Color space : YUV
Chroma subsampling : 4:2:0
Bit depth : 8 bits
Scan type : Progressive
Bits/(Pixel*Frame) : 0.042
Stream size : 352 MiB (95%)
Writing library : VOLO1.4.1
Language : Japanese
Default : Yes
Forced : No

Audio
ID : 2
Format : AAC LC
Format/Info : Advanced Audio Codec Low Complexity
Codec ID : A_AAC-2
Duration : 23 min 47 s
Bit rate : 96.0 kb/s
Channel(s) : 2 channels
Channel layout : L R
Sampling rate : 48.0 kHz
Frame rate : 46.875 FPS (1024 SPF)
Compression mode : Lossy
Delay relative to video : -42 ms
Stream size : 16.3 MiB (4%)
Language : Japanese
Default : Yes
Forced : No

Text #1
ID : 3
Format : UTF-8
Codec ID : S_TEXT/UTF8
Codec ID/Info : UTF-8 Plain Text
Duration : 23 min 39 s
Bit rate : 56 b/s
Frame rate : 0.263 FPS
Count of elements : 374
Stream size : 9.78 KiB (0%)
Title : Chinese Simplified
Language : Chinese
Default : Yes
Forced : No

Text #2
ID : 4
Format : UTF-8
Codec ID : S_TEXT/UTF8
Codec ID/Info : UTF-8 Plain Text
Duration : 23 min 39 s
Bit rate : 56 b/s
Frame rate : 0.263 FPS
Count of elements : 374
Stream size : 9.78 KiB (0%)
Title : Chinese Traditional
Language : Chinese
Default : No
Forced : No


点击图片可查看大图

软字幕无法在截图上展现,HDR版本/杜比视界版本截图会出现颜色异常,请使用支持的设备播放!

部分资源为软字幕,移动端推荐播放器:MxPlayer,nPlayer,infuse ,其他播放器请自行尝试。

部分资源为软字幕,电脑端推荐播放器:PotPlayer,完美解码,KMPLAYER,其他播放器请自行尝试。

下载端推荐纯BT下载软件:qBittorrent,Bitcomet,uTorrent ,其他下载软件请自行尝试。不支持吸血迅雷。

上传的附件:
最新回复 (0)