2024 大陆 剧情 WEB-1080P 川流[第26-27集][国语配音/中文字幕].A.Hero.Without.A.Name.S01.2024.1080p.WEB-DL.H264.AAC-LelveTV 1.07GB

MAY20919R 2024-04-15 10:25 729


完整标题:川流[第26-27集][国语配音/中文字幕].A.Hero.Without.A.Name.S01.2024.1080p.WEB-DL.H264.AAC-LelveTV 1.07GB




◎标  题 川流
◎年  代 2024
◎产  地 中国大陆
◎类  别 剧情
◎IMDb链接 https://www.imdb.com/title/tt31961575/
◎豆瓣链接 https://movie.douban.com/subject/35472003/
◎导  演 韦大军 Dajun Wei
◎演  员 张铎 Duo Zhang
      余心恬 Xintian Yu
      韩童生 Tongsheng Han
      尚铁龙 Tielong Shang

◎简  介
    二十世纪四十年代,成都。大学生郑笑南是个血性青年,目睹无辜民众死于日机轰炸、在大学共产党员同学的影响下,弃笔从戎、投身疆场。与日军一次恶战中,川军小分队全军覆没,郑笑南被八路军搭救并成为其中一员。在这个大熔炉中,他磨练了意志、坚定了信仰,成长为一名共产党员。解放战争时期,郑笑南肩负党的使命重返川军回到成都,一场斗智斗勇的战斗由此展开。凭借抗日英雄的身份,他策动将领起义、保护进步人士,在紧要关头成功化解了危机,瓦解敌人阴谋,为成都的和平解放贡献出青春热血。黎明到来,解放军入城。郑笑南完成了使命,收获了爱情。

##### MediaInfo ######
General
Complete name : A.Hero.Without.A.Name.S01E26.2024.1080p.WEB-DL.H264.AAC-LelveTV.mp4
Duration : 45 min 7 s
Overall bit rate : 1 674 kb/s

Video
ID : 1
Format : AVC
Format/Info : Advanced Video Codec
Format profile : High@L5
Format settings : CABAC / 6 Ref Frames
Format settings, CABAC : Yes
Format settings, Reference frames : 6 frames
Codec ID : avc1
Codec ID/Info : Advanced Video Coding
Duration : 45 min 7 s
Bit rate : 1 532 kb/s
Width : 1 920 pixels
Height : 1 080 pixels
Display aspect ratio : 16:9
Frame rate mode : Constant
Frame rate : 25.000 FPS
Color space : YUV
Chroma subsampling : 4:2:0
Bit depth : 8 bits
Scan type : Progressive
Bits/(Pixel*Frame) : 0.030
Stream size : 494 MiB (92%)
Encoded date : UTC 2024-04-14 14:00:00
Tagged date : UTC 2024-04-14 14:00:00
Color range : Limited
Color primaries : BT.709
Transfer characteristics : BT.709
Matrix coefficients : BT.709
Codec configuration box : avcC

Audio
ID : 2
Format : AAC LC
Format/Info : Advanced Audio Codec Low Complexity
Codec ID : mp4a-40-2
Duration : 45 min 7 s
Bit rate mode : Constant
Bit rate : 135 kb/s
Channel(s) : 2 channels
Channel layout : L R
Sampling rate : 48.0 kHz
Frame rate : 46.875 FPS (1024 SPF)
Compression mode : Lossy
Stream size : 43.6 MiB (8%)
Default : Yes
Alternate group : 1
Encoded date : UTC 2024-04-14 14:00:00
Tagged date : UTC 2024-04-14 14:00:00


部分资源为软字幕,移动端推荐播放器:MxPlayer,nPlayer,infuse ,其他播放器请自行尝试。

部分资源为软字幕,电脑端推荐播放器:PotPlayer,完美解码,KMPLAYER,其他播放器请自行尝试。

下载端推荐纯BT下载软件:qBittorrent,Bitcomet,uTorrent ,其他下载软件请自行尝试。不支持吸血迅雷。

上传的附件:
最新回复 (0)