2022 日本 剧情 WEB-1080P 独活女子的推荐 第二季[全8集][中文字幕].A.Solo.Ladys.Recommendations.S02.1080p.KKTV.WEB-DL.AAC2.0.H.264-BlackTV 4.39GB

Katt2092T 2024-04-15 15:57 687


完整标题:独活女子的推荐 第二季[全8集][中文字幕].A.Solo.Ladys.Recommendations.S02.1080p.KKTV.WEB-DL.AAC2.0.H.264-BlackTV 4.39GB




◎标  题 独活女子的推荐 第二季
◎片  名 ソロ活女子のススメ シーズン2
◎年  代 2022
◎产  地 日本
◎语  言 日语
◎上映日期 2022-04-06(日本)
◎IMDb链接 https://www.imdb.com/title//
◎豆瓣评分 7.9/10 (885人评价)
◎豆瓣链接 https://movie.douban.com/subject/35755117/
◎演  员 江口德子 Noriko Eguchi
      小林树奈子 Kinako Kobayashi
      涩谷谦人 Kento Shibuya
      大塚明夫 Akio Ôtsuka
      藤原树 Itsuki Fujiwara
      箭内梦菜 Yumena Yanai
      小手伸也 Shinya Kote
      佐伯大地 Saeki Daichi
      特林德尔·玲奈 Reina Triendl
      水谷隼 Jun Mizutani

◎简  介
  《文摘出版》编辑部的合同工五月女惠(江口德子饰)拒绝了同事的聚餐邀请,匆匆下班。理由是为了积极地享受一个人的时间的活动。为了在喜欢的时候在喜欢的地方,度过只有一个人能享受的奢侈的时间,惠今天也追寻着新的独活。@哦撸马(阿点)

##### MediaInfo ######
General
Unique ID : 38535538397828304869024264379299441757 (0x1CFDACBB425055FD0DE14ABBA54AAC5D)
Complete name : A.Solo.Ladys.Recommendations.S02E01.1080p.KKTV.WEB-DL.AAC2.0.H.264-BlackTV.mkv
Duration : 24 min 0 s
Overall bit rate : 3 502 kb/s

Video
ID : 1
Format : AVC
Format/Info : Advanced Video Codec
Format profile : High@L4.1
Format settings : CABAC / 5 Ref Frames
Format settings, CABAC : Yes
Format settings, Reference frames : 5 frames
Codec ID : V_MPEG4/ISO/AVC
Duration : 24 min 0 s
Bit rate : 3 268 kb/s
Width : 1 920 pixels
Height : 1 080 pixels
Display aspect ratio : 16:9
Frame rate mode : Constant
Frame rate : 29.970 (30000/1001) FPS
Color space : YUV
Chroma subsampling : 4:2:0
Bit depth : 8 bits
Scan type : Progressive
Bits/(Pixel*Frame) : 0.053
Stream size : 568 MiB (94%)
Writing library : x264 core 142
Encoding settings : cabac=1 / ref=5 / deblock=1:0:0 / analyse=0x3:0x113 / me=umh / subme=9 / psy=1 / psy_rd=1.00:0.00 / mixed_ref=1 / me_range=32 / chroma_me=1 / trellis=1 / 8x8dct=1 / cqm=0 / deadzone=21,11 / fast_pskip=1 / chroma_qp_offset=-2 / threads=6 / lookahead_threads=1 / sliced_threads=0 / nr=0 / decimate=1 / interlaced=0 / bluray_compat=0 / stitchable=1 / constrained_intra=0 / bframes=3 / b_pyramid=2 / b_adapt=1 / b_bias=0 / direct=3 / weightb=1 / open_gop=0 / weightp=2 / keyint=30 / keyint_min=3 / scenecut=0 / intra_refresh=0 / rc_lookahead=40 / rc=abr / mbtree=1 / bitrate=3268 / ratetol=1.0 / qcomp=0.60 / qpmin=0 / qpmax=69 / qpstep=4 / vbv_maxrate=4902 / vbv_bufsize=7353 / nal_hrd=none / filler=0 / ip_ratio=1.40 / aq=1:1.00
Language : English
Default : Yes
Forced : No

Audio
ID : 2
Format : AAC LC
Format/Info : Advanced Audio Codec Low Complexity
Codec ID : A_AAC-2
Duration : 24 min 0 s
Bit rate : 192 kb/s
Channel(s) : 2 channels
Channel layout : L R
Sampling rate : 44.1 kHz
Frame rate : 43.066 FPS (1024 SPF)
Compression mode : Lossy
Stream size : 33.0 MiB (5%)
Language : English
Default : Yes
Forced : No

Text #1
ID : 3
Format : UTF-8
Codec ID : S_TEXT/UTF8
Codec ID/Info : UTF-8 Plain Text
Duration : 23 min 58 s
Bit rate : 69 b/s
Frame rate : 0.292 FPS
Count of elements : 420
Stream size : 12.2 KiB (0%)
Language : Chinese
Default : No
Forced : No

Text #2
ID : 4
Format : UTF-8
Codec ID : S_TEXT/UTF8
Codec ID/Info : UTF-8 Plain Text
Duration : 23 min 58 s
Bit rate : 69 b/s
Frame rate : 0.292 FPS
Count of elements : 420
Stream size : 12.2 KiB (0%)
Title : Traditional
Language : Chinese
Default : No
Forced : No


点击图片可查看大图

软字幕无法在截图上展现,HDR版本/杜比视界版本截图会出现颜色异常,请使用支持的设备播放!

部分资源为软字幕,移动端推荐播放器:MxPlayer,nPlayer,infuse ,其他播放器请自行尝试。

部分资源为软字幕,电脑端推荐播放器:PotPlayer,完美解码,KMPLAYER,其他播放器请自行尝试。

下载端推荐纯BT下载软件:qBittorrent,Bitcomet,uTorrent ,其他下载软件请自行尝试。不支持吸血迅雷。

上传的附件:
最新回复 (0)