2022 美国 剧情 WEB-4K 荒野独居 第九季[第08集][中文字幕].Alone.S09.2015.2160p.WEB-DL.H265.AAC-LelveTV 2.85GB

Katt2092T 2024-04-15 16:01 534


完整标题:荒野独居 第九季[第08集][中文字幕].Alone.S09.2015.2160p.WEB-DL.H265.AAC-LelveTV 2.85GB




◎标  题 荒野独居 第九季
◎译  名 独行侠
◎片  名 Alone Season 9
◎年  代 2022
◎产  地 美国
◎类  别 纪录片 / 真人秀
◎语  言 英语
◎IMDb评分 7.9/10 (73人评价)
◎IMDb链接 https://www.imdb.com/title/tt19796592/
◎豆瓣评分 6.4/10 (245人评价)
◎豆瓣链接 https://movie.douban.com/subject/35932175/

◎简  介
    十名新参与者重返历史频道的第一期夏季生存系列节目。在拉布拉多的大河,参与者面对跟踪捕食者北极熊。

##### MediaInfo ######
General
Complete name : Alone.S09E08.2015.2160p.WEB-DL.H265.AAC-LelveTV.mp4
Duration : 41 min 23 s
Overall bit rate : 9 845 kb/s

Video
ID : 1
Format : HEVC
Format/Info : High Efficiency Video Coding
Format profile : Main@L5.1@Main
Codec ID : hev1
Codec ID/Info : High Efficiency Video Coding
Duration : 41 min 23 s
Bit rate : 9 646 kb/s
Width : 3 840 pixels
Height : 2 160 pixels
Display aspect ratio : 16:9
Frame rate mode : Variable
Frame rate : 25.000 FPS
Minimum frame rate : 25.000 FPS
Maximum frame rate : 16 000.000 FPS
Color space : YUV
Chroma subsampling : 4:2:0
Bit depth : 8 bits
Bits/(Pixel*Frame) : 0.047
Stream size : 2.79 GiB (98%)
Encoded date : UTC 2024-04-14 11:00:00
Tagged date : UTC 2024-04-14 11:00:00
Color range : Limited
Color primaries : BT.709
Transfer characteristics : BT.709
Matrix coefficients : BT.709
Menus : 4
Codec configuration box : hvcC

Audio
ID : 2
Format : AAC LC
Format/Info : Advanced Audio Codec Low Complexity
Codec ID : mp4a-40-2
Duration : 41 min 23 s
Bit rate mode : Constant
Bit rate : 192 kb/s
Channel(s) : 2 channels
Channel layout : L R
Sampling rate : 48.0 kHz
Frame rate : 46.875 FPS (1024 SPF)
Compression mode : Lossy
Stream size : 56.7 MiB (2%)
Default : Yes
Alternate group : 1
Encoded date : UTC 2024-04-14 11:00:00
Tagged date : UTC 2024-04-14 11:00:00
Menus : 4

Menu #1
ID : 4
Format : Timed Text
Codec ID : text
Duration : 1 min 25 s
Language : English
Encoded date : UTC 2024-04-14 11:00:00
Tagged date : UTC 2024-04-14 11:00:00
Menu For : 1,2
00:00:00.000 : 片头

Menu #2
00:00:00.000 : 片头


部分资源为软字幕,移动端推荐播放器:MxPlayer,nPlayer,infuse ,其他播放器请自行尝试。

部分资源为软字幕,电脑端推荐播放器:PotPlayer,完美解码,KMPLAYER,其他播放器请自行尝试。

下载端推荐纯BT下载软件:qBittorrent,Bitcomet,uTorrent ,其他下载软件请自行尝试。不支持吸血迅雷。

上传的附件:
最新回复 (0)