2024 美国 剧情 WEB-4K 奇思妙探[第04集][无字片源].Elsbeth.S01.2160p.Paramount/.WEB-DL.DDP.5.1.H.265-BlackTV 2.86GB

RAY20920M 2024-04-15 16:03 658


完整标题:奇思妙探[第04集][无字片源].Elsbeth.S01.2160p.Paramount/.WEB-DL.DDP.5.1.H.265-BlackTV 2.86GB




◎标  题 奇思妙探
◎译  名 《傲骨贤妻》衍生剧 / 埃尔斯贝思 / 埃尔斯贝丝 / 奇思律探 / 奇思妙律
◎片  名 Elsbeth
◎年  代 2024
◎产  地 美国
◎类  别 剧情 / 犯罪
◎语  言 英语
◎IMDb评分 7.2/10 (119人评价)
◎IMDb链接 https://www.imdb.com/title/tt26591110/
◎豆瓣链接 https://movie.douban.com/subject/36226799/
◎导  演 罗伯特·金 Robert King
◎编  剧 米歇尔·金 Michelle King
      罗伯特·金 Robert King
◎演  员 卡丽·普雷斯顿 Carrie Preston
      丹尼·马斯特罗吉奥尔吉奥 Danny Mastrogiorgio
      维德尔·皮尔斯 Wendell Pierce
      丹尼·麦卡锡 Danny McCarthy
      卡拉·帕特森 Carra Patterson
      Julia McDermott
      Chelsea Lee Williams
      Michael Washington
      Adam Keane
      Alex Costello

◎简  介
    该剧是《傲骨贤妻》的第二部衍生剧,故事基于《傲骨贤妻》和《傲骨之战》中的角色创作。   Elsbeth Tascioni(卡丽·普雷斯顿 饰)是一位精明但异于常人的律师,在芝加哥取得事业上的成功后,她来到了纽约。Elsbeth运用自己的奇异视角进行着独特的观察,协同纽约警局追捕那些狡猾的罪犯。

##### MediaInfo ######
General
Unique ID : 122189101748232202306245705793185030947 (0x5BECC3D69CAEF01758B2B7BAC1D4A323)
Complete name : Elsbeth.S01E04.Love.Knocked.Off.2160p.Paramount+.WEB-DL.DDP.5.1.H.265-BlackTV.mkv
Duration : 43 min 16 s
Overall bit rate : 9 449 kb/s

Video
ID : 1
Format : HEVC
Format/Info : High Efficiency Video Coding
Format profile : Main@L5@Main
Codec ID : V_MPEGH/ISO/HEVC
Duration : 43 min 16 s
Bit rate : 9 255 kb/s
Width : 3 840 pixels
Height : 2 160 pixels
Display aspect ratio : 16:9
Frame rate mode : Constant
Frame rate : 23.976 (24000/1001) FPS
Color space : YUV
Chroma subsampling : 4:2:0
Bit depth : 8 bits
Bits/(Pixel*Frame) : 0.047
Stream size : 2.80 GiB (98%)
Language : English
Default : Yes
Forced : No
Color range : Limited
Color primaries : BT.709
Transfer characteristics : BT.709
Matrix coefficients : BT.709

Audio
ID : 2
Format : E-AC-3
Format/Info : Enhanced AC-3
Commercial name : Dolby Digital Plus
Codec ID : A_EAC3
Duration : 43 min 16 s
Bit rate mode : Constant
Bit rate : 192 kb/s
Channel(s) : 6 channels
Channel layout : L R C LFE Ls Rs
Sampling rate : 48.0 kHz
Frame rate : 31.250 FPS (1536 SPF)
Compression mode : Lossy
Stream size : 59.4 MiB (2%)
Language : English
Service kind : Complete Main
Default : Yes
Forced : No

Text
ID : 3
Format : UTF-8
Codec ID : S_TEXT/UTF8
Codec ID/Info : UTF-8 Plain Text
Duration : 42 min 47 s
Bit rate : 101 b/s
Frame rate : 0.414 FPS
Count of elements : 1063
Stream size : 31.9 KiB (0%)
Title : SDH
Language : English
Default : No
Forced : No

Menu
00:00:00.000 : en:Chapter 01


点击图片可查看大图

软字幕无法在截图上展现,HDR版本/杜比视界版本截图会出现颜色异常,请使用支持的设备播放!

部分资源为软字幕,移动端推荐播放器:MxPlayer,nPlayer,infuse ,其他播放器请自行尝试。

部分资源为软字幕,电脑端推荐播放器:PotPlayer,完美解码,KMPLAYER,其他播放器请自行尝试。

下载端推荐纯BT下载软件:qBittorrent,Bitcomet,uTorrent ,其他下载软件请自行尝试。不支持吸血迅雷。

上传的附件:
最新回复 (0)