2024 韩国 剧情 WEB-1080P 七人的复活[第06集][中文字幕].The.Escape.of.the.Seven.Resurrection.S01.1080p.MyVideo.WEB-DL.AAC.2.0.H.264-BlackTV 2.28GB

Katt2092T 2024-04-15 16:07 1032


完整标题:七人的复活[第06集][中文字幕].The.Escape.of.the.Seven.Resurrection.S01.1080p.MyVideo.WEB-DL.AAC.2.0.H.264-BlackTV 2.28GB




◎标  题 七人的复活
◎译  名 七人的逃脱 第二季 / 7인의 탈출2 / Reborn of the Seven: War For Survival Season 2 / The Escape of the Seven: Resurrection
◎片  名 7인의 부활
◎年  代 2024
◎产  地 韩国
◎类  别 剧情 / 悬疑
◎语  言 韩语
◎IMDb链接 https://www.imdb.com/title//
◎豆瓣链接 https://movie.douban.com/subject/36283153/
◎导  演 朱东民 Dong-min Joo
      吴俊赫 Joon-hyuk Oh
◎编  剧 金顺玉 Kim Sun-ok
◎演  员 严基俊 Ki-joon Um
      黄正音 Jeong-eum Hwang
      李准 Joon Lee
      李侑菲 Yoo-Bi Lee
      申恩庆 Eun-Kyung Shin
      尹仲勋 Jong-hoon Yoon
      赵允熙 Yun-hee Cho
      赵在允 Jae-yun Jo
      李德华 Deok-hwa Lee

◎简  介
    SBS剧集《七人的逃脱》将季播,预计拍摄第二季。

##### MediaInfo ######
General
Unique ID : 160139274999063211682972026716479959830 (0x7879B3D6FEC2DB97234DA326F1423316)
Complete name : The.Escape.of.the.Seven.Resurrection.S01E06.1080p.MyVideo.WEB-DL.AAC.2.0.H.264-BlackTV.mkv
Duration : 1 h 11 min
Overall bit rate : 4 545 kb/s

Video
ID : 1
Format : AVC
Format/Info : Advanced Video Codec
Format profile : Main@L4
Format settings : CABAC / 1 Ref Frames
Format settings, CABAC : Yes
Format settings, Reference frames : 1 frame
Format settings, GOP : M=1, N=60
Codec ID : V_MPEG4/ISO/AVC
Duration : 1 h 11 min
Bit rate mode : Constant
Bit rate : 4 500 kb/s
Width : 1 920 pixels
Height : 1 080 pixels
Display aspect ratio : 16:9
Frame rate mode : Constant
Frame rate : 29.970 (30000/1001) FPS
Color space : YUV
Chroma subsampling : 4:2:0
Bit depth : 8 bits
Scan type : Progressive
Bits/(Pixel*Frame) : 0.072
Stream size : 2.24 GiB (99%)
Language : English
Default : Yes
Forced : No

Audio
ID : 2
Format : AAC LC
Format/Info : Advanced Audio Codec Low Complexity
Codec ID : A_AAC-2
Duration : 1 h 11 min
Bit rate : 56.0 kb/s
Channel(s) : 2 channels
Channel layout : L R
Sampling rate : 44.1 kHz
Frame rate : 43.066 FPS (1024 SPF)
Compression mode : Lossy
Stream size : 28.7 MiB (1%)
Language : English
Default : Yes
Forced : No

Text
ID : 3
Format : UTF-8
Codec ID : S_TEXT/UTF8
Codec ID/Info : UTF-8 Plain Text
Duration : 1 h 10 min
Bit rate : 53 b/s
Frame rate : 0.261 FPS
Count of elements : 1106
Stream size : 27.6 KiB (0%)
Title : Traditional
Language : Chinese
Default : No
Forced : No


点击图片可查看大图

软字幕无法在截图上展现,HDR版本/杜比视界版本截图会出现颜色异常,请使用支持的设备播放!

部分资源为软字幕,移动端推荐播放器:MxPlayer,nPlayer,infuse ,其他播放器请自行尝试。

部分资源为软字幕,电脑端推荐播放器:PotPlayer,完美解码,KMPLAYER,其他播放器请自行尝试。

下载端推荐纯BT下载软件:qBittorrent,Bitcomet,uTorrent ,其他下载软件请自行尝试。不支持吸血迅雷。

上传的附件:
最新回复 (0)