2024 台湾 剧情 WEB-1080P 省省吧!我家富贵发[第01-02集][国语配音/中文字幕].The.Thrifty.Family.S01.1080p.Linetv.WEB-DL.AAC2.0.H.264-BlackTV 4.10GB

Katt2092T 2024-04-15 16:10 895


完整标题:省省吧!我家富贵发[第01-02集][国语配音/中文字幕].The.Thrifty.Family.S01.1080p.Linetv.WEB-DL.AAC2.0.H.264-BlackTV 4.10GB




◎标  题 省省吧!我家富贵发
◎片  名 省省吧!我家富貴發
◎年  代 2024
◎产  地 中国台湾
◎类  别 剧情 / 喜剧 / 家庭
◎语  言 汉语普通话
◎IMDb链接 https://www.imdb.com/title//
◎豆瓣链接 https://movie.douban.com/subject/36369390/
◎导  演 姜瑞智 Jui-Chih Chiang
      曾大衡 Da-heng Zeng
◎演  员 郭子乾 Tzu-Cheng Guo
      余晋 Snoopy Yu
      胡智强 Jhih-Ciang Hu
      孟耿如 Summer Meng
      陈昭妃 Queenie Chen

◎简  介
    讲述全世界最会省钱的一家人使劲各种办法去占邻居便宜,却也发现了许多人人不敢说出口的事情,是一部家庭喜剧影集。

##### MediaInfo ######
General
Complete name : The.Thrifty.Family.S01E01.1080p.Linetv.WEB-DL.AAC2.0.H.264-BlackTV.mp4
Duration : 45 min 33 s
Overall bit rate mode : Variable
Overall bit rate : 6 243 kb/s

Video
ID : 1
Format : AVC
Format/Info : Advanced Video Codec
Format profile : High@L4
Format settings : CABAC / 3 Ref Frames
Format settings, CABAC : Yes
Format settings, Reference frames : 3 frames
Codec ID : avc1
Codec ID/Info : Advanced Video Coding
Duration : 45 min 33 s
Source duration : 45 min 33 s
Bit rate mode : Variable
Bit rate : 5 862 kb/s
Maximum bit rate : 9 000 kb/s
Width : 1 920 pixels
Height : 1 080 pixels
Display aspect ratio : 16:9
Frame rate mode : Constant
Frame rate : 29.970 (30000/1001) FPS
Standard : Component
Color space : YUV
Chroma subsampling : 4:2:0
Bit depth : 8 bits
Scan type : Progressive
Bits/(Pixel*Frame) : 0.094
Stream size : 1.87 GiB (94%)
Source stream size : 1.94 GiB (98%)
Color range : Limited
Color primaries : BT.709
Transfer characteristics : BT.709
Matrix coefficients : BT.709
Codec configuration box : avcC

Audio
ID : 2
Format : AAC LC
Format/Info : Advanced Audio Codec Low Complexity
Codec ID : mp4a-40-2
Duration : 45 min 33 s
Bit rate mode : Variable
Bit rate : 125 kb/s
Maximum bit rate : 129 kb/s
Channel(s) : 2 channels
Channel layout : L R
Sampling rate : 48.0 kHz
Frame rate : 46.875 FPS (1024 SPF)
Compression mode : Lossy
Stream size : 40.8 MiB (2%)
Default : Yes
Alternate group : 1


点击图片可查看大图

软字幕无法在截图上展现,HDR版本/杜比视界版本截图会出现颜色异常,请使用支持的设备播放!

部分资源为软字幕,移动端推荐播放器:MxPlayer,nPlayer,infuse ,其他播放器请自行尝试。

部分资源为软字幕,电脑端推荐播放器:PotPlayer,完美解码,KMPLAYER,其他播放器请自行尝试。

下载端推荐纯BT下载软件:qBittorrent,Bitcomet,uTorrent ,其他下载软件请自行尝试。不支持吸血迅雷。

上传的附件:
最新回复 (0)