2023 大陆 剧情 WEB-4K 仙逆[第32集][国语配音/中文字幕].Renegade.Immortal.S01.2023.2160p.WEB-DL.H265.DDP2.0-ZeroTV 1.54GB

RAY20920M 2024-04-15 16:19 23531


完整标题:仙逆[第32集][国语配音/中文字幕].Renegade.Immortal.S01.2023.2160p.WEB-DL.H265.DDP2.0-ZeroTV 1.54GB




◎标  题 仙逆
◎译  名 Renegade Immortal
◎年  代 2023
◎产  地 中国大陆
◎类  别 剧情 / 动画 / 古装
◎语  言 汉语普通话
◎IMDb链接 https://www.imdb.com/title//
◎豆瓣链接 https://movie.douban.com/subject/35679839/
◎导  演 石头熊 TouXiong Shi
◎编  剧 马华 Hua Ma
◎演  员 史泽鲲 Zekun Shi
      常文涛 Wentao Chang
      林强 Qiang Lin
      周湘宁
      张惠霖 Huilin Zhang
      刘思岑 Sicen Liu
      王婧儿 Jinger Wang

◎简  介
    改编自耳根同名小说《仙逆》,讲述了乡村平凡少年王林以心中之感动,逆仙而修,求的不仅是长生,更多的是摆脱那背后的蝼蚁之身。他坚信道在人为,以平庸的资质踏入修真仙途,历经坎坷风雨,凭着其聪睿的心智,一步一步走向巅峰,凭一己之力,扬名修真界。

##### MediaInfo ######
General
Unique ID : 74250075136252958442100963745783701680 (0x37DC0B57C1620D4D6B60DEEE840960B0)
Complete name : 仙逆.Renegade.Immortal.S01E32.2023.2160p.WEB-DL.H265.DDP2.0-ZeroTV.mkv
Duration : 21 min 15 s
Overall bit rate : 10.3 Mb/s

Video
ID : 1
Format : HEVC
Format/Info : High Efficiency Video Coding
Format profile : Main@L5@Main
Codec ID : V_MPEGH/ISO/HEVC
Duration : 21 min 15 s
Bit rate : 9 967 kb/s
Width : 3 840 pixels
Height : 1 632 pixels
Display aspect ratio : 2.35:1
Frame rate mode : Constant
Frame rate : 25.000 FPS
Color space : YUV
Chroma subsampling : 4:2:0
Bit depth : 8 bits
Bits/(Pixel*Frame) : 0.064
Stream size : 1.48 GiB (96%)
Writing library : Tencent-V265-1.6.9.1-p1k184g16lh64f4ra1.
Default : Yes
Forced : No
Color range : Limited
Color primaries : BT.709
Transfer characteristics : BT.709
Matrix coefficients : BT.709

Audio #1
ID : 2
Format : E-AC-3
Format/Info : Enhanced AC-3
Commercial name : Dolby Digital Plus
Codec ID : A_EAC3
Duration : 21 min 15 s
Bit rate mode : Constant
Bit rate : 256 kb/s
Channel(s) : 2 channels
Channel layout : L R
Sampling rate : 48.0 kHz
Frame rate : 31.250 FPS (1536 SPF)
Compression mode : Lossy
Delay relative to video : -42 ms
Stream size : 38.9 MiB (2%)
Title : Mandarin
Language : Chinese
Service kind : Complete Main
Default : Yes
Forced : No

Audio #2
ID : 3
Format : AAC LC
Format/Info : Advanced Audio Codec Low Complexity
Codec ID : A_AAC-2
Duration : 21 min 15 s
Bit rate : 125 kb/s
Channel(s) : 2 channels
Channel layout : L R
Sampling rate : 48.0 kHz
Frame rate : 46.875 FPS (1024 SPF)
Compression mode : Lossy
Delay relative to video : -42 ms
Stream size : 19.1 MiB (1%)
Title : Mandarin
Language : Chinese
Default : No
Forced : No


点击图片可查看大图

软字幕无法在截图上展现,HDR版本/杜比视界版本截图会出现颜色异常,请使用支持的设备播放!

部分资源为软字幕,移动端推荐播放器:MxPlayer,nPlayer,infuse ,其他播放器请自行尝试。

部分资源为软字幕,电脑端推荐播放器:PotPlayer,完美解码,KMPLAYER,其他播放器请自行尝试。

下载端推荐纯BT下载软件:qBittorrent,Bitcomet,uTorrent ,其他下载软件请自行尝试。不支持吸血迅雷。

上传的附件:
最新回复 (1)
  • Sean2023 1月前
    0 2
    感謝分享~~!!