2024 大陆 剧情 WEB-1080P 群星闪耀时[第01-04集][国语配音/中文字幕].Shooting.Stars.S01.2024.1080p.WEB-DL.H264.AAC-LelveTV 2.13GB

MAY20919R 2024-04-15 16:42 4627


完整标题:群星闪耀时[第01-04集][国语配音/中文字幕].Shooting.Stars.S01.2024.1080p.WEB-DL.H264.AAC-LelveTV 2.13GB




◎标  题 群星闪耀时
◎译  名 Shooting Stars / When the Stars Shine
◎年  代 2024
◎产  地 中国大陆
◎类  别 剧情 / 悬疑
◎语  言 汉语普通话
◎IMDb链接 https://www.imdb.com/title/tt29931598/
◎豆瓣链接 https://movie.douban.com/subject/36067150/
◎导  演 万里扬 Liyang Wan
◎编  剧 黄琛 Chen Huang
      蒲维 Wei Pu
◎演  员 李现 Xian Li
      任敏 Min Ren
      周游 You Zhou
      王紫璇 Zixuan Wang
      王茂蕾 Maolei Wang
      宋芳园 Fangyuan Song
      蒋易 Yi Jiang
      李祉默 Zhimo Li
      宋宁峰 Ningfeng Song
      黄志忠 Zhizhong Huang

◎简  介
    抗战时期,出身于国民党高官家庭的华桢原本要参加海军,实现自己成为舰长的梦想。然而一趟意外的上海之行,华桢的人生被彻底改变—他改名向远生并成为了一间破落派出所的底层警员。在这里,向远生遇到了一生中最重要的两个人—共产党员陈浩和骆珉敏,他们让向远生找到了人生的意义。在陈浩、骆珉敏等人的影响下,向远生坚定了共产主义信仰,最终成为党隐蔽战线上一名优秀的战士,成全了自己对理想信仰的追求。

##### MediaInfo ######
General
Complete name : Shooting.Stars.S01E01.2024.1080p.WEB-DL.H264.AAC-LelveTV.mp4
Duration : 46 min 15 s
Overall bit rate mode : Variable
Overall bit rate : 1 815 kb/s

Video
ID : 1
Format : AVC
Format/Info : Advanced Video Codec
Format profile : High@L4
Format settings : CABAC / 4 Ref Frames
Format settings, CABAC : Yes
Format settings, Reference frames : 4 frames
Codec ID : avc1
Codec ID/Info : Advanced Video Coding
Duration : 46 min 15 s
Bit rate : 1 619 kb/s
Width : 1 920 pixels
Height : 1 080 pixels
Display aspect ratio : 16:9
Frame rate mode : Constant
Frame rate : 25.000 FPS
Color space : YUV
Chroma subsampling : 4:2:0
Bit depth : 8 bits
Scan type : Progressive
Bits/(Pixel*Frame) : 0.031
Stream size : 536 MiB (89%)
Writing library : 211111.mgtv.com
Color range : Limited
Color primaries : BT.709
Transfer characteristics : BT.709
Matrix coefficients : BT.709
Codec configuration box : avcC

Audio
ID : 2
Format : AAC LC
Format/Info : Advanced Audio Codec Low Complexity
Codec ID : mp4a-40-2
Duration : 46 min 15 s
Bit rate mode : Variable
Bit rate : 192 kb/s
Channel(s) : 2 channels
Channel layout : L R
Sampling rate : 44.1 kHz
Frame rate : 43.066 FPS (1024 SPF)
Compression mode : Lossy
Stream size : 62.7 MiB (10%)
Default : Yes
Alternate group : 1


点击图片可查看大图

软字幕无法在截图上展现,HDR版本/杜比视界版本截图会出现颜色异常,请使用支持的设备播放!

部分资源为软字幕,移动端推荐播放器:MxPlayer,nPlayer,infuse ,其他播放器请自行尝试。

部分资源为软字幕,电脑端推荐播放器:PotPlayer,完美解码,KMPLAYER,其他播放器请自行尝试。

下载端推荐纯BT下载软件:qBittorrent,Bitcomet,uTorrent ,其他下载软件请自行尝试。不支持吸血迅雷。

上传的附件:
最新回复 (0)