2024 英国 剧情 WEB-1080P 贝尔戈维亚:下一章[全8集][无字片源].Belgravia.The.Next.Chapter.S01.1080p.AMZN.WEB-DL.DDP.5.1.H.264-BlackTV 20.37GB

Katt2092T 2024-04-15 23:24 967


完整标题:贝尔戈维亚:下一章[全8集][无字片源].Belgravia.The.Next.Chapter.S01.1080p.AMZN.WEB-DL.DDP.5.1.H.264-BlackTV 20.37GB




◎标  题 贝尔戈维亚:下一章
◎片  名 Belgravia: The Next Chapter
◎年  代 2024
◎产  地 英国
◎类  别 剧情 / 家庭
◎语  言 英语
◎IMDb链接 https://www.imdb.com/title/tt23931190/
◎豆瓣链接 https://movie.douban.com/subject/36200243/
◎导  演 约翰·亚历山大 John Alexander
◎编  剧 朱利安·费罗斯 Julian Fellowes
      海伦·埃德蒙森 Helen Edmundson
◎演  员 苏菲·汤普森 Sophie Thompson
      Ludovic Hughes
      Ciara Coughlan
      亚当·詹姆斯 Adam James
      安迪·M·米利根 Andy M Milligan
      汤姆·克里斯蒂安 Tom Christian
      佩内洛普·麦吉 Penelope McGhie
      塞兰·巴克斯特 Seylan Baxter
      詹姆斯·奥利弗·惠特利 James Oliver Wheatley
      黛西·塞奎拉 Daisy Sequerra
      爱德华·布卢梅尔 Edward Bluemel
      莱纳德·巴克利 Leonard Buckley
      杰拉德琳·切瓦蕾 Géraldine Chevalley
      托比·瑞格波 Toby Regbo
      汉娜·昂斯洛 Hannah Onslow
      哈里特·斯莱特 Harriet Slater
      本杰明·温赖特 Benjamin Wainwright
      克洛德·佩隆 Claude Perron
      劳伦·麦奎因 Lauren McQueen
      Julie Barclay Julie Barclay
      伊莲·卡西迪 Elaine Cassidy
      乔什·柯德雷 Josh Cowdery
      索菲·温克曼 Sophie Winkleman
      皮埃尔·伯格曼 Pierre Bergman

◎简  介
    讲述《贝尔戈维亚》25年后的故事,丑闻继续缠绕着这个家族。

##### MediaInfo ######
General
Unique ID : 62108056720784949980964990169041893771 (0x2EB9939D8A59150DFD742810CF6C798B)
Complete name : Belgravia.The.Next.Chapter.S01E01.Episode.One.1080p.AMZN.WEB-DL.DDP.5.1.H.264-BlackTV.mkv
Duration : 52 min 33 s
Overall bit rate : 7 249 kb/s

Video
ID : 1
Format : AVC
Format/Info : Advanced Video Codec
Format profile : High@L4
Format settings : CABAC / 4 Ref Frames
Format settings, CABAC : Yes
Format settings, Reference frames : 4 frames
Codec ID : V_MPEG4/ISO/AVC
Duration : 52 min 33 s
Bit rate mode : Constant
Bit rate : 6 607 kb/s
Nominal bit rate : 10 000 kb/s
Width : 1 920 pixels
Height : 1 080 pixels
Display aspect ratio : 16:9
Frame rate mode : Constant
Frame rate : 23.976 (24000/1001) FPS
Color space : YUV
Chroma subsampling : 4:2:0
Bit depth : 8 bits
Scan type : Progressive
Bits/(Pixel*Frame) : 0.133
Stream size : 2.43 GiB (91%)
Language : English
Default : Yes
Forced : No
Color range : Limited
Color primaries : BT.709
Transfer characteristics : BT.709
Matrix coefficients : BT.709

Audio
ID : 2
Format : E-AC-3
Format/Info : Enhanced AC-3
Commercial name : Dolby Digital Plus
Codec ID : A_EAC3
Duration : 52 min 33 s
Bit rate mode : Constant
Bit rate : 640 kb/s
Channel(s) : 6 channels
Channel layout : L R C LFE Ls Rs
Sampling rate : 48.0 kHz
Frame rate : 31.250 FPS (1536 SPF)
Compression mode : Lossy
Stream size : 241 MiB (9%)
Language : English
Service kind : Complete Main
Default : Yes
Forced : No

Text
ID : 3
Format : UTF-8
Codec ID : S_TEXT/UTF8
Codec ID/Info : UTF-8 Plain Text
Duration : 50 min 52 s
Bit rate : 67 b/s
Frame rate : 0.296 FPS
Count of elements : 904
Stream size : 25.2 KiB (0%)
Title : United Kingdom (SDH)
Language : English
Default : No
Forced : No

Menu
00:00:00.000 : en:Studio Logo
00:00:14.000 : en:Ratings
00:00:17.000 : en:Studio Logo
00:01:42.000 : en:Opening Credits
00:02:22.000 : en:Title Sequence
00:02:26.000 : en:Opening Credits
00:02:46.000 : en:Scene 7
00:07:07.000 : en:Scene 8
00:08:11.000 : en:Scene 9
00:09:44.000 : en:Scene 10
00:10:31.000 : en:Scene 11
00:11:33.000 : en:Scene 12
00:12:42.000 : en:Scene 13
00:13:09.000 : en:Scene 14
00:15:27.000 : en:Scene 15
00:15:56.000 : en:Scene 16
00:17:43.000 : en:Scene 17
00:19:50.000 : en:Scene 18
00:20:24.000 : en:Scene 19
00:21:40.000 : en:Scene 20
00:23:24.000 : en:Scene 21
00:24:34.000 : en:Scene 22
00:25:15.000 : en:Scene 23
00:26:54.000 : en:Scene 24
00:28:00.000 : en:Scene 25
00:28:38.000 : en:Scene 26
00:30:50.000 : en:Scene 27
00:31:46.000 : en:Scene 28
00:32:45.000 : en:Scene 29
00:34:11.000 : en:Scene 30
00:36:10.000 : en:Scene 31
00:37:01.000 : en:Scene 32
00:38:05.000 : en:Scene 33
00:40:31.000 : en:Scene 34
00:43:19.000 : en:Scene 35
00:45:16.000 : en:Scene 36
00:47:25.000 : en:Scene 37
00:51:19.000 : en:End Credits


点击图片可查看大图

软字幕无法在截图上展现,HDR版本/杜比视界版本截图会出现颜色异常,请使用支持的设备播放!

部分资源为软字幕,移动端推荐播放器:MxPlayer,nPlayer,infuse ,其他播放器请自行尝试。

部分资源为软字幕,电脑端推荐播放器:PotPlayer,完美解码,KMPLAYER,其他播放器请自行尝试。

下载端推荐纯BT下载软件:qBittorrent,Bitcomet,uTorrent ,其他下载软件请自行尝试。不支持吸血迅雷。

最新回复 (0)