2024 英国 剧情 WEB-1080P 警之光 第二季[全6集][无字片源].Blue.Lights.S02.1080p.iP.WEB-DL.AAC.2.0.HFR.H.264-BlackTV 13.31GB

MAY20919R 2024-04-15 23:25 904


完整标题:警之光 第二季[全6集][无字片源].Blue.Lights.S02.1080p.iP.WEB-DL.AAC.2.0.HFR.H.264-BlackTV 13.31GB




◎标  题 警之光 第二季
◎译  名 一线警事 / 蓝光警报(台) / 北爱警之光 / 蓝光
◎片  名 Blue Lights Season 2
◎年  代 2024
◎产  地 英国
◎类  别 剧情 / 惊悚 / 犯罪
◎语  言 英语
◎IMDb链接 https://www.imdb.com/title/tt27762874/
◎豆瓣链接 https://movie.douban.com/subject/36355892/
◎导  演 吉尔斯·班尼尔 Gilles Bannier
◎编  剧 德克兰·朗 Declan Lawn
      亚当·帕特森 Adam Patterson
◎演  员 珊·布鲁克 Sian Brooke
      马丁·麦凯恩 Martin McCann
      凯瑟琳·德夫林 Katherine Devlin
      内森·布兰尼夫 Nathan Braniff
      汉娜·麦克莱恩 Hannah McClean
      乔安妮·克劳福德 Joanne Crawford
      安迪·奥修 Andi Osho
      弗兰克·布莱克 Frank Blake
      帕蒂·杰金斯 Paddy Jenkins
      德斯蒙德·伊斯特伍德 Desmond Eastwood
      安德里亚·厄文 Andrea Irvine
      奥依申·麦卡恩 Aoibheann McCann
      阿比盖尔·麦吉本 Abigail McGibbon
      谢默斯·奥哈拉 Seamus O'Hara
      莎娜·凯斯雷克 Seána Kerslake
      克雷格·麦金莱 Craig McGinlay
      丹·戈登 Dan Gordon
      斯蒂芬·博姆 Stefan Boehm
      纳比勒·埃卢比 Nabil Elouahabi
      乔纳森·哈登 Jonathan Harden
      瓦伦·凯恩 Valene Kane
      弗朗基·麦卡弗蒂 Frankie McCafferty

◎简  介
    Grace, Annie and Tommy are growing up fast as police officers, but nothing can prepare them for the turmoil they face every day. It’s a year since the fall of the McIntyre crime gang and the vacuum has been filled by rival gangs, all competing for dominance. Constable Shane Bradley is drafted in to help, but his motivations are unclear. Tommy is dangerously seduced by the world of intelligence policing, while Grace struggles to deal with her son’s absence, and growing feelings for fellow officer Stevie. As a young loyalist threatens to take over the city, the officers face a major gangland feud – culminating in a violent and devastating confrontation.

##### MediaInfo ######
General
Unique ID : 249093957477094755111325663801275434369 (0xBB65C04C7CC911510E1712964375C581)
Complete name : Blue.Lights.S02E01.This.Too.Shall.Pass.1080p.iP.WEB-DL.AAC.2.0.HFR.H.264-BlackTV.mkv
Duration : 57 min 27 s
Overall bit rate mode : Variable
Overall bit rate : 4 885 kb/s

Video
ID : 1
Format : AVC
Format/Info : Advanced Video Codec
Format profile : High@L4.2
Format settings : CABAC / 4 Ref Frames
Format settings, CABAC : Yes
Format settings, Reference frames : 4 frames
Codec ID : V_MPEG4/ISO/AVC
Duration : 57 min 27 s
Bit rate mode : Variable
Bit rate : 4 753 kb/s
Maximum bit rate : 12.0 Mb/s
Width : 1 920 pixels
Height : 1 080 pixels
Display aspect ratio : 16:9
Frame rate mode : Constant
Frame rate : 50.000 FPS
Color space : YUV
Chroma subsampling : 4:2:0
Bit depth : 8 bits
Scan type : Progressive
Bits/(Pixel*Frame) : 0.046
Stream size : 1.91 GiB (97%)
Language : English
Default : Yes
Forced : No
Color range : Limited
Color primaries : BT.709
Transfer characteristics : BT.709
Matrix coefficients : BT.709

Audio
ID : 2
Format : AAC LC
Format/Info : Advanced Audio Codec Low Complexity
Codec ID : A_AAC-2
Duration : 57 min 27 s
Bit rate : 128 kb/s
Channel(s) : 2 channels
Channel layout : L R
Sampling rate : 48.0 kHz
Frame rate : 46.875 FPS (1024 SPF)
Compression mode : Lossy
Stream size : 52.6 MiB (3%)
Language : English
Default : Yes
Forced : No

Text
ID : 3
Format : UTF-8
Codec ID : S_TEXT/UTF8
Codec ID/Info : UTF-8 Plain Text
Duration : 56 min 45 s
Bit rate : 57 b/s
Frame rate : 0.266 FPS
Count of elements : 906
Stream size : 24.0 KiB (0%)
Title : United Kingdom (SDH)
Language : English
Default : No
Forced : No


点击图片可查看大图

软字幕无法在截图上展现,HDR版本/杜比视界版本截图会出现颜色异常,请使用支持的设备播放!

部分资源为软字幕,移动端推荐播放器:MxPlayer,nPlayer,infuse ,其他播放器请自行尝试。

部分资源为软字幕,电脑端推荐播放器:PotPlayer,完美解码,KMPLAYER,其他播放器请自行尝试。

下载端推荐纯BT下载软件:qBittorrent,Bitcomet,uTorrent ,其他下载软件请自行尝试。不支持吸血迅雷。

上传的附件:
最新回复 (0)