2023 英国 剧情 WEB-1080P 天堂岛疑云 第十二季[全8集][中文字幕].Death.in.Paradise.S12.1080p.CATCHPLAY.WEB-DL.AAC2.0.H.264-BlackTV 13.35GB

RAY20920M 2024-04-15 23:29 466


完整标题:天堂岛疑云 第十二季[全8集][中文字幕].Death.in.Paradise.S12.1080p.CATCHPLAY.WEB-DL.AAC2.0.H.264-BlackTV 13.35GB




◎标  题 天堂岛疑云 第十二季
◎片  名 Death In Paradise Season 12
◎年  代 2023
◎产  地 英国
◎类  别 剧情 / 犯罪
◎语  言 英语
◎IMDb评分 7.4/10 (343人评价)
◎IMDb链接 https://www.imdb.com/title/tt20672510/
◎豆瓣评分 8.0/10 (180人评价)
◎豆瓣链接 https://movie.douban.com/subject/35682122/
◎演  员 纳尔夫·李特 Ralf Little

◎简  介
    Marking its milestone second decade in production, series 11 and 12 will see cast regulars and new faces alike descend on Saint Marie, delving into a world of mysterious murders and perplexing puzzles that have gained Death In Paradise its reputation as a shining example of the crime drama genre.

##### MediaInfo ######
General
Unique ID : 126705604357541004372847888129755732625 (0x5F529C9C0044573076D3BE1F7C2C5A91)
Complete name : Death.in.Paradise.S12E01.1080p.CATCHPLAY.WEB-DL.AAC2.0.H.264-BlackTV.mkv
Duration : 58 min 12 s
Overall bit rate mode : Variable
Overall bit rate : 4 071 kb/s

Video
ID : 1
Format : AVC
Format/Info : Advanced Video Codec
Format profile : Main@L4.1
Format settings : CABAC / 4 Ref Frames
Format settings, CABAC : Yes
Format settings, Reference frames : 4 frames
Format settings, GOP : M=3, N=48
Codec ID : V_MPEG4/ISO/AVC
Duration : 58 min 12 s
Bit rate mode : Variable
Bit rate : 3 943 kb/s
Maximum bit rate : 6 000 kb/s
Width : 1 920 pixels
Height : 1 080 pixels
Display aspect ratio : 16:9
Frame rate mode : Constant
Frame rate : 25.000 FPS
Color space : YUV
Chroma subsampling : 4:2:0
Bit depth : 8 bits
Scan type : Progressive
Bits/(Pixel*Frame) : 0.076
Stream size : 1.60 GiB (97%)
Language : English
Default : Yes
Forced : No

Audio
ID : 2
Format : AAC LC
Format/Info : Advanced Audio Codec Low Complexity
Codec ID : A_AAC-2
Duration : 56 min 59 s
Bit rate : 128 kb/s
Channel(s) : 2 channels
Channel layout : L R
Sampling rate : 48.0 kHz
Frame rate : 46.875 FPS (1024 SPF)
Compression mode : Lossy
Stream size : 52.3 MiB (3%)
Language : English
Default : Yes
Forced : No

Text #1
ID : 3
Format : UTF-8
Codec ID : S_TEXT/UTF8
Codec ID/Info : UTF-8 Plain Text
Duration : 56 min 58 s
Bit rate : 171 b/s
Frame rate : 0.586 FPS
Count of elements : 2003
Stream size : 71.7 KiB (0%)
Language : Chinese
Default : No
Forced : No

Text #2
ID : 4
Format : UTF-8
Codec ID : S_TEXT/UTF8
Codec ID/Info : UTF-8 Plain Text
Duration : 56 min 58 s
Bit rate : 73 b/s
Frame rate : 0.266 FPS
Count of elements : 911
Stream size : 30.5 KiB (0%)
Title : Taiwan
Language : Chinese
Default : No
Forced : No

Text #3
ID : 5
Format : UTF-8
Codec ID : S_TEXT/UTF8
Codec ID/Info : UTF-8 Plain Text
Duration : 56 min 0 s
Bit rate : 95 b/s
Frame rate : 0.322 FPS
Count of elements : 1082
Stream size : 39.3 KiB (0%)
Language : English
Default : No
Forced : No


点击图片可查看大图

软字幕无法在截图上展现,HDR版本/杜比视界版本截图会出现颜色异常,请使用支持的设备播放!

部分资源为软字幕,移动端推荐播放器:MxPlayer,nPlayer,infuse ,其他播放器请自行尝试。

部分资源为软字幕,电脑端推荐播放器:PotPlayer,完美解码,KMPLAYER,其他播放器请自行尝试。

下载端推荐纯BT下载软件:qBittorrent,Bitcomet,uTorrent ,其他下载软件请自行尝试。不支持吸血迅雷。

上传的附件:
最新回复 (0)