2024 英国 剧情 WEB-1080P 天堂岛疑云 第十三季[全8集][中文字幕].Death.in.Paradise.S13.1080p.CATCHPLAY.WEB-DL.AAC2.0.H.264-BlackTV 13.40GB

MAY20919R 2024-04-15 23:30 788


完整标题:天堂岛疑云 第十三季[全8集][中文字幕].Death.in.Paradise.S13.1080p.CATCHPLAY.WEB-DL.AAC2.0.H.264-BlackTV 13.40GB




◎标  题 天堂岛疑云 第十三季
◎片  名 Death in Paradise Season 13
◎年  代 2024
◎产  地 英国
◎类  别 剧情 / 悬疑 / 犯罪
◎语  言 英语
◎IMDb评分 7.1/10 (21人评价)
◎IMDb链接 https://www.imdb.com/title/tt26908984/
◎豆瓣链接 https://movie.douban.com/subject/36284589/

◎简  介
    BBC一口气续订《天堂岛疑云》第13、14季,以及两集圣诞节特别篇。

##### MediaInfo ######
General
Unique ID : 86342742801468952880404783249726601884 (0x40F501E3EE1B9BF6E620DA4999BB7A9C)
Complete name : Death.in.Paradise.S13E01.1080p.CATCHPLAY.WEB-DL.AAC2.0.H.264-BlackTV.mkv
Duration : 59 min 24 s
Overall bit rate mode : Variable
Overall bit rate : 4 109 kb/s

Video
ID : 1
Format : AVC
Format/Info : Advanced Video Codec
Format profile : Main@L4.1
Format settings : CABAC / 4 Ref Frames
Format settings, CABAC : Yes
Format settings, Reference frames : 4 frames
Format settings, GOP : M=3, N=48
Codec ID : V_MPEG4/ISO/AVC
Duration : 59 min 24 s
Bit rate mode : Variable
Bit rate : 3 977 kb/s
Maximum bit rate : 6 000 kb/s
Width : 1 920 pixels
Height : 1 080 pixels
Display aspect ratio : 16:9
Frame rate mode : Constant
Frame rate : 25.000 FPS
Color space : YUV
Chroma subsampling : 4:2:0
Bit depth : 8 bits
Scan type : Progressive
Bits/(Pixel*Frame) : 0.077
Stream size : 1.65 GiB (97%)
Language : English
Default : Yes
Forced : No

Audio
ID : 2
Format : AAC LC
Format/Info : Advanced Audio Codec Low Complexity
Codec ID : A_AAC-2
Duration : 59 min 24 s
Bit rate : 128 kb/s
Channel(s) : 2 channels
Channel layout : L R
Sampling rate : 48.0 kHz
Frame rate : 46.875 FPS (1024 SPF)
Compression mode : Lossy
Stream size : 54.5 MiB (3%)
Language : English
Default : Yes
Forced : No

Text #1
ID : 3
Format : UTF-8
Codec ID : S_TEXT/UTF8
Codec ID/Info : UTF-8 Plain Text
Duration : 58 min 16 s
Bit rate : 166 b/s
Frame rate : 0.525 FPS
Count of elements : 1835
Stream size : 71.2 KiB (0%)
Language : Chinese
Default : No
Forced : No

Text #2
ID : 4
Format : UTF-8
Codec ID : S_TEXT/UTF8
Codec ID/Info : UTF-8 Plain Text
Duration : 58 min 16 s
Bit rate : 64 b/s
Frame rate : 0.221 FPS
Count of elements : 774
Stream size : 27.6 KiB (0%)
Title : Taiwan
Language : Chinese
Default : No
Forced : No

Text #3
ID : 5
Format : UTF-8
Codec ID : S_TEXT/UTF8
Codec ID/Info : UTF-8 Plain Text
Duration : 58 min 31 s
Bit rate : 83 b/s
Frame rate : 0.338 FPS
Count of elements : 1187
Stream size : 35.6 KiB (0%)
Language : English
Default : No
Forced : No


点击图片可查看大图

软字幕无法在截图上展现,HDR版本/杜比视界版本截图会出现颜色异常,请使用支持的设备播放!

部分资源为软字幕,移动端推荐播放器:MxPlayer,nPlayer,infuse ,其他播放器请自行尝试。

部分资源为软字幕,电脑端推荐播放器:PotPlayer,完美解码,KMPLAYER,其他播放器请自行尝试。

下载端推荐纯BT下载软件:qBittorrent,Bitcomet,uTorrent ,其他下载软件请自行尝试。不支持吸血迅雷。

上传的附件:
最新回复 (0)