2014 日本 剧情 WEB-4K 孤独的美食家 第四季[全12集][中文字幕].Kodoku.no.Gurume.S04.2012.2160p.WEB-DL.H265.AAC-LelveTV 14.87GB

MAY20919R 2024-04-29 17:28 778


完整标题:孤独的美食家 第四季[全12集][中文字幕].Kodoku.no.Gurume.S04.2012.2160p.WEB-DL.H265.AAC-LelveTV 14.87GB




◎标  题 孤独的美食家 第四季
◎译  名 Kodoku no Gurume 4 / Solitary Gourmet 4
◎片  名 孤独のグルメ Season4
◎年  代 2014
◎产  地 日本
◎类  别 剧情
◎语  言 日语
◎IMDb评分 7.9/10 (16人评价)
◎IMDb链接 https://www.imdb.com/title/tt3861936/
◎豆瓣评分 9.3/10 (23602人评价)
◎豆瓣链接 https://movie.douban.com/subject/25890096/
◎编  剧 田口佳宏 Yoshihiro Taguchi
◎演  员 布施绘里 Eri Fuse
      成松修 Osamu Narimatsu
      森冈朋奈 Tomona Morioka
      松山爱里 Airi Matsuyama
      松重丰 Yutaka Matsushige
      石桥莲司 Renji Ishibashi
      野间口彻 Tôru Nomaguchi
      山中崇 Takashi Yamanaka
      西田尚美 Naomi Nishida
      小日向文世 Fumiyo Kohinata
      笛木优子 Yuko Fueki
      小宫有纱 Arisa Komiya
      青山伦子 Noriko Aoyama
      志贺广太郎 Kotaro Shiga
      入江崇史 Irie Takashi

◎简  介
    美食漫画《孤独的美食家》在改编真人日剧后大受欢迎,现在日剧《孤独的美食家4》宣布将从7月9日起在东京电视台播出,主人公井之头五郎继续由演员松重丰饰演。

##### MediaInfo ######
General
Complete name : Kodoku.no.Gurume.S04E01.2012.2160p.WEB-DL.H265.AAC-LelveTV.mp4
Duration : 33 min 42 s
Overall bit rate : 5 577 kb/s

Video
ID : 1
Format : HEVC
Format/Info : High Efficiency Video Coding
Format profile : Main@L5.1@Main
Codec ID : hev1
Codec ID/Info : High Efficiency Video Coding
Duration : 33 min 42 s
Bit rate : 5 248 kb/s
Width : 3 840 pixels
Height : 2 160 pixels
Display aspect ratio : 16:9
Frame rate mode : Variable
Frame rate : 29.970 (29970/1000) FPS
Minimum frame rate : 29.412 FPS
Maximum frame rate : 30.303 FPS
Color space : YUV
Chroma subsampling : 4:2:0
Bit depth : 8 bits
Bits/(Pixel*Frame) : 0.021
Stream size : 1.24 GiB (94%)
Encoded date : UTC 2019-04-19 16:00:04
Tagged date : UTC 2019-04-19 16:00:04
Color range : Limited
Color primaries : BT.709
Transfer characteristics : BT.709
Matrix coefficients : BT.709
Menus : 4
Codec configuration box : hvcC

Audio
ID : 2
Format : AAC LC
Format/Info : Advanced Audio Codec Low Complexity
Codec ID : mp4a-40-2
Duration : 33 min 42 s
Bit rate mode : Constant
Bit rate : 317 kb/s
Channel(s) : 2 channels
Channel layout : L R
Sampling rate : 48.0 kHz
Frame rate : 46.875 FPS (1024 SPF)
Compression mode : Lossy
Stream size : 76.5 MiB (6%)
Default : Yes
Alternate group : 1
Encoded date : UTC 2019-04-19 16:00:04
Tagged date : UTC 2019-04-19 16:00:04
Menus : 4

Menu #1
ID : 4
Format : Timed Text
Codec ID : text
Duration : 30 min 10 s
Language : English
Encoded date : UTC 2019-04-19 16:00:04
Tagged date : UTC 2019-04-19 16:00:04
Bit rate mode : CBR
Menu For : 1,2
00:00:00.000 : 正片
00:02:10.000 : 片头
00:02:40.000 : 正片
00:29:33.000 : 片尾
Bit rate mode : Constant

Menu #2
00:00:00.000 : 正片
00:02:10.000 : 片头
00:02:40.000 : 正片
00:29:33.000 : 片尾


部分资源为软字幕,移动端推荐播放器:MxPlayer,nPlayer,infuse ,其他播放器请自行尝试。

部分资源为软字幕,电脑端推荐播放器:PotPlayer,完美解码,KMPLAYER,其他播放器请自行尝试。

下载端推荐纯BT下载软件:qBittorrent,Bitcomet,uTorrent ,其他下载软件请自行尝试。不支持吸血迅雷。

上传的附件:
最新回复 (0)