2014 日本 剧情 WEB-1080P 蛹[第06集][中文字幕].2024.1080p.WEB-DL.H264.AAC-ZeroTV 1.25GB

MAY20919R 2024-05-07 20:32 511


完整标题:蛹[第06集][中文字幕].2024.1080p.WEB-DL.H264.AAC-ZeroTV 1.25GB




◎标  题 蛹
◎译  名 ピューパ
◎片  名 pupa
◎年  代 2014
◎产  地 日本
◎类  别 剧情 / 动画 / 恐怖
◎语  言 日语
◎IMDb评分 2.6/10 (1211人评价)
◎IMDb链接 https://www.imdb.com/title/tt3185682/
◎豆瓣评分 5.3/10 (3598人评价)
◎豆瓣链接 https://movie.douban.com/subject/23115890/
◎导  演 望月智充 Tomomi Mochizuki
◎演  员 岛崎信长 Nobunaga Shimazaki
      游佐浩二 Koji Yusa
      木户衣吹 Ibuki Kido
      酒井广大 Sakai Koudai
      黑泽友梨香 Yurika Kurosawa

◎简  介
    长谷川现(岛崎信长 配音)和妹妹阿梦(木户衣吹 配音)一直以来都生活在家庭暴力的阴影之下,父亲鬼岛四郎(游佐浩二 配音)的残酷与暴戾早已经超越了正常人可以承受的极限,兄妹两人从小就知道,对于动不动就对妻子和孩子拳打脚踢的这个男人,他们要有多远躲多远。   父母离婚之后,母亲离家出走之后,就真的只剩下阿现和阿梦相依为命了,在阿现的眼中,妹妹的一切就是他的整个世界,为了妹妹,他无论做什么都心甘情愿。不幸的是,阿梦在意外之中感染了名为“pupa”的神秘病毒,逐渐变成了嗜血和好食人肉的怪物,而阿现自己似乎也受到了病毒的影响,拥有了可以无限自愈的能力。就这样,阿现将自己献给了阿梦,成为了她的“食物”。

##### MediaInfo ######
General
Unique ID : 266634860390179746389567786765683984278 (0xC89801954B43E5F65185D3EA38F70796)
Complete name : Tensei.Shitara.Dai.Nana.Ouji.Dattanode.Kimamani.Majutsu.wo.Kiwamemasu.S01E06.2024.1080p.WEB-DL.H264.AAC-ZeroTV.mkv
Duration : 24 min 5 s
Overall bit rate : 7 412 kb/s

Video
ID : 1
Format : AVC
Format/Info : Advanced Video Codec
Format profile : High@L4.1
Format settings : CABAC / 1 Ref Frames
Format settings, CABAC : Yes
Format settings, Reference frames : 1 frame
Format settings, GOP : M=1, N=60
Codec ID : V_MPEG4/ISO/AVC
Duration : 24 min 5 s
Bit rate mode : Constant
Bit rate : 7 283 kb/s
Nominal bit rate : 8 000 kb/s
Width : 1 920 pixels
Height : 1 080 pixels
Display aspect ratio : 16:9
Frame rate mode : Constant
Frame rate : 29.970 (30000/1001) FPS
Color space : YUV
Chroma subsampling : 4:2:0
Bit depth : 8 bits
Scan type : Progressive
Bits/(Pixel*Frame) : 0.117
Stream size : 1.23 GiB (98%)
Language : English
Default : Yes
Forced : No

Audio
ID : 2
Format : AAC LC
Format/Info : Advanced Audio Codec Low Complexity
Codec ID : A_AAC-2
Duration : 24 min 4 s
Bit rate : 125 kb/s
Channel(s) : 2 channels
Channel layout : L R
Sampling rate : 48.0 kHz
Frame rate : 46.875 FPS (1024 SPF)
Compression mode : Lossy
Stream size : 21.6 MiB (2%)
Title : 日语
Language : Japanese
Default : Yes
Forced : No


点击图片可查看大图

软字幕无法在截图上展现,HDR版本/杜比视界版本截图会出现颜色异常,请使用支持的设备播放!

部分资源为软字幕,移动端推荐播放器:MxPlayer,nPlayer,infuse ,其他播放器请自行尝试。

部分资源为软字幕,电脑端推荐播放器:PotPlayer,完美解码,KMPLAYER,其他播放器请自行尝试。

下载端推荐纯BT下载软件:qBittorrent,Bitcomet,uTorrent ,其他下载软件请自行尝试。不支持吸血迅雷。

最新回复 (0)