2024 日本 剧情 WEB-1080P 致光之君[第19集][中文字幕].Dear.Radiance.S01.1080p.MyVideo.WEB-DL.AAC.2.0.H.264-BlackTV 1.26GB

MAY20919R 2024-05-15 23:26 767


完整标题:致光之君[第19集][中文字幕].Dear.Radiance.S01.1080p.MyVideo.WEB-DL.AAC.2.0.H.264-BlackTV 1.26GB




◎标  题 致光之君
◎译  名 致光源氏
◎片  名 光る君へ
◎年  代 2024
◎产  地 日本
◎类  别 剧情 / 传记 / 历史
◎语  言 日语
◎IMDb链接 https://www.imdb.com/title//
◎豆瓣链接 https://movie.douban.com/subject/35897627/
◎导  演 中岛由贵 Yuki Nakajima
      佐佐木善春 Yoshiharu Sasaki
◎编  剧 大石静 Shizuka Oishi
◎演  员 吉高由里子 Yuriko Yoshitaka
      柄本佑 Tasuku Emoto
      岸谷五朗 Gorô Kishitani
      国仲凉子 Ryoko Kuninaka
      高杉真宙 Mahiro Takasugi
      段田安则 Yasunori Danda
      三石琴乃 Kotono Mitsuishi
      井浦新 ARATA
      玉置玲央 Reo Tamaoki
      吉田羊 Yô Yoshida
      板谷由夏 Yuka Itaya
      初夏 First Summer Uika
      中山裕介 Yusuke Santamaria
      高畑充希 Mitsuki Takahata
      本乡奏多 Kanata Hongô
      见上爱 Ai Mikami
      三浦翔平 Shohei Miura
      龙星凉 Ryo Ryûsei
      坂东巳之助 Minosuke Bandou
      町田启太 Keita Machida
      井上咲乐 Sakura Inoue
      凰稀要 Kaname Ouki
      三游亭小游三 Koyuza Sanyutei

◎简  介
    紫式部的代表作《源氏物语》的主角源氏为原作的光之君,通过与作为原型的平安时代的掌权者藤原道长的身份差的恋爱和作为单亲妈妈的奋斗等,描绘执笔源氏物语的紫式部的人生。

##### MediaInfo ######
General
Unique ID : 313850878587653979800314820928583217266 (0xEC1D7B02FE39894AC4F1760C0B6FB072)
Complete name : Dear.Radiance.S01E19.1080p.MyVideo.WEB-DL.AAC.2.0.H.264-BlackTV.mkv
Duration : 42 min 30 s
Overall bit rate : 4 251 kb/s

Video
ID : 1
Format : AVC
Format/Info : Advanced Video Codec
Format profile : Main@L4
Format settings : CABAC / 2 Ref Frames
Format settings, CABAC : Yes
Format settings, Reference frames : 2 frames
Format settings, GOP : M=2, N=60
Codec ID : V_MPEG4/ISO/AVC
Duration : 42 min 30 s
Bit rate mode : Constant
Bit rate : 4 189 kb/s
Nominal bit rate : 4 500 kb/s
Width : 1 920 pixels
Height : 1 080 pixels
Display aspect ratio : 16:9
Frame rate mode : Constant
Frame rate : 29.970 (30000/1001) FPS
Color space : YUV
Chroma subsampling : 4:2:0
Bit depth : 8 bits
Scan type : Progressive
Bits/(Pixel*Frame) : 0.067
Stream size : 1.24 GiB (99%)
Language : English
Default : Yes
Forced : No

Audio
ID : 2
Format : AAC LC
Format/Info : Advanced Audio Codec Low Complexity
Codec ID : A_AAC-2
Duration : 42 min 30 s
Bit rate : 52.6 kb/s
Channel(s) : 2 channels
Channel layout : L R
Sampling rate : 48.0 kHz
Frame rate : 46.875 FPS (1024 SPF)
Compression mode : Lossy
Stream size : 16.0 MiB (1%)
Language : English
Default : Yes
Forced : No


部分资源为软字幕,移动端推荐播放器:MxPlayer,nPlayer,infuse ,其他播放器请自行尝试。

部分资源为软字幕,电脑端推荐播放器:PotPlayer,完美解码,KMPLAYER,其他播放器请自行尝试。

下载端推荐纯BT下载软件:qBittorrent,Bitcomet,uTorrent ,其他下载软件请自行尝试。不支持吸血迅雷。

上传的附件:
最新回复 (0)