2024 剧情 其他 WEB-4K 拯救我[HDR/杜比视界双版本][全5集][简繁英字幕].Deliver.Me.S01.2024.2160p.NF.WEB-DL.DDP5.1.DV.HDR.H.265-LelveTV 31.98GB

RAY20920M 2024-05-15 23:26 868


完整标题:拯救我[HDR/杜比视界双版本][全5集][简繁英字幕].Deliver.Me.S01.2024.2160p.NF.WEB-DL.DDP5.1.DV.HDR.H.265-LelveTV 31.98GB




◎标  题 拯救我
◎译  名 Deliver Me
◎片  名 I dina händer
◎年  代 2024
◎产  地 瑞典
◎类  别 剧情 / 悬疑 / 惊悚
◎语  言 瑞典语
◎IMDb评分 6.5/10 (1211人评价)
◎IMDb链接 https://www.imdb.com/title/tt20832442/
◎豆瓣链接 https://movie.douban.com/subject/35925065/
◎演  员 Yusra Warsama Yusra Warsama

◎简  介
    少年比利和道格加入当地帮派后,面对这个暴力的世界,年纪尚轻的他们无力自保。

##### MediaInfo ######
General
Unique ID : 227048135874348827980275382455166795365 (0xAACFE15FE9CEEBDA197F1763EF477E65)
Complete name : Deliver.Me.S01E01.2024.2160p.NF.WEB-DL.DDP5.1.DV.HDR.H.265-LelveTV.mkv
Duration : 38 min 16 s
Overall bit rate : 20.5 Mb/s

Video
ID : 1
Format : HEVC
Format/Info : High Efficiency Video Coding
Format profile : Main 10@L5@Main
HDR format : Dolby Vision, Version 1.0, dvhe.08.07, BL+RPU, HDR10 compatible / SMPTE ST 2086, HDR10 compatible
Codec ID : V_MPEGH/ISO/HEVC
Duration : 38 min 16 s
Bit rate : 19.2 Mb/s
Width : 3 840 pixels
Height : 2 160 pixels
Display aspect ratio : 16:9
Frame rate mode : Constant
Frame rate : 25.000 FPS
Color space : YUV
Chroma subsampling : 4:2:0 (Type 2)
Bit depth : 10 bits
Bits/(Pixel*Frame) : 0.093
Stream size : 5.14 GiB (94%)
Default : Yes
Forced : No
Color range : Limited
Color primaries : BT.2020
Transfer characteristics : PQ
Matrix coefficients : BT.2020 non-constant
Mastering display color primaries : Display P3
Mastering display luminance : min: 0.0001 cd/m2, max: 1000 cd/m2
Maximum Content Light Level : 777 cd/m2
Maximum Frame-Average Light Level : 231 cd/m2

Audio #1
ID : 2
Format : E-AC-3
Format/Info : Enhanced AC-3
Commercial name : Dolby Digital Plus
Codec ID : A_EAC3
Duration : 38 min 16 s
Bit rate mode : Constant
Bit rate : 640 kb/s
Channel(s) : 6 channels
Channel layout : L R C LFE Ls Rs
Sampling rate : 48.0 kHz
Frame rate : 31.250 FPS (1536 SPF)
Compression mode : Lossy
Stream size : 175 MiB (3%)
Title : Svenska [Dolby Digital Plus 5.1]
Language : Swedish
Service kind : Complete Main
Default : Yes
Forced : No

Audio #2
ID : 3
Format : E-AC-3
Format/Info : Enhanced AC-3
Commercial name : Dolby Digital Plus
Codec ID : A_EAC3
Duration : 38 min 16 s
Bit rate mode : Constant
Bit rate : 640 kb/s
Channel(s) : 6 channels
Channel layout : L R C LFE Ls Rs
Sampling rate : 48.0 kHz
Frame rate : 31.250 FPS (1536 SPF)
Compression mode : Lossy
Stream size : 175 MiB (3%)
Title : English [Dolby Digital Plus 5.1]
Language : English
Service kind : Complete Main
Default : No
Forced : No

Text #1
ID : 4
Format : UTF-8
Codec ID : S_TEXT/UTF8
Codec ID/Info : UTF-8 Plain Text
Duration : 34 min 40 s
Bit rate : 44 b/s
Frame rate : 0.158 FPS
Count of elements : 329
Stream size : 11.3 KiB (0%)
Title : Svenska [SDH]
Language : Swedish
Default : No
Forced : No

Text #2
ID : 5
Format : UTF-8
Codec ID : S_TEXT/UTF8
Codec ID/Info : UTF-8 Plain Text
Duration : 36 min 38 s
Bit rate : 36 b/s
Frame rate : 0.143 FPS
Count of elements : 315
Stream size : 9.75 KiB (0%)
Title : 中文(简体)
Language : Chinese
Default : Yes
Forced : No

Text #3
ID : 6
Format : UTF-8
Codec ID : S_TEXT/UTF8
Codec ID/Info : UTF-8 Plain Text
Duration : 36 min 38 s
Bit rate : 34 b/s
Frame rate : 0.142 FPS
Count of elements : 313
Stream size : 9.13 KiB (0%)
Title : 中文 (繁體)
Language : Chinese
Default : No
Forced : No

Text #4
ID : 7
Format : UTF-8
Codec ID : S_TEXT/UTF8
Codec ID/Info : UTF-8 Plain Text
Duration : 36 min 38 s
Bit rate : 61 b/s
Frame rate : 0.141 FPS
Count of elements : 311
Stream size : 16.5 KiB (0%)
Title : ???????
Language : Arabic
Default : No
Forced : No

Text #5
ID : 8
Format : UTF-8
Codec ID : S_TEXT/UTF8
Codec ID/Info : UTF-8 Plain Text
Duration : 34 min 40 s
Bit rate : 36 b/s
Frame rate : 0.145 FPS
Count of elements : 301
Stream size : 9.20 KiB (0%)
Title : ?e?tina
Language : Czech
Default : No
Forced : No

Text #6
ID : 9
Format : UTF-8
Codec ID : S_TEXT/UTF8
Codec ID/Info : UTF-8 Plain Text
Duration : 36 min 38 s
Bit rate : 34 b/s
Frame rate : 0.138 FPS
Count of elements : 303
Stream size : 9.24 KiB (0%)
Title : Dansk
Language : Danish
Default : No
Forced : No

Text #7
ID : 10
Format : UTF-8
Codec ID : S_TEXT/UTF8
Codec ID/Info : UTF-8 Plain Text
Duration : 34 min 40 s
Bit rate : 38 b/s
Frame rate : 0.149 FPS
Count of elements : 310
Stream size : 9.72 KiB (0%)
Title : Deutsch
Language : German
Default : No
Forced : No

Text #8
ID : 11
Format : UTF-8
Codec ID : S_TEXT/UTF8
Codec ID/Info : UTF-8 Plain Text
Duration : 34 min 40 s
Bit rate : 58 b/s
Frame rate : 0.147 FPS
Count of elements : 306
Stream size : 14.9 KiB (0%)
Title : Ελληνικ?
Language : Greek
Default : No
Forced : No

Text #9
ID : 12
Format : UTF-8
Codec ID : S_TEXT/UTF8
Codec ID/Info : UTF-8 Plain Text
Duration : 35 min 58 s
Bit rate : 45 b/s
Frame rate : 0.177 FPS
Count of elements : 383
Stream size : 12.1 KiB (0%)
Title : English
Language : English
Default : No
Forced : No

Text #10
ID : 13
Format : UTF-8
Codec ID : S_TEXT/UTF8
Codec ID/Info : UTF-8 Plain Text
Duration : 36 min 38 s
Bit rate : 34 b/s
Frame rate : 0.142 FPS
Count of elements : 312
Stream size : 9.28 KiB (0%)
Title : Espa?ol
Language : Spanish
Default : No
Forced : No

Text #11
ID : 14
Format : UTF-8
Codec ID : S_TEXT/UTF8
Codec ID/Info : UTF-8 Plain Text
Duration : 36 min 38 s
Bit rate : 34 b/s
Frame rate : 0.141 FPS
Count of elements : 311
Stream size : 9.32 KiB (0%)
Title : Espa?ol (Espa?a)
Language : Spanish
Default : No
Forced : No

Text #12
ID : 15
Format : UTF-8
Codec ID : S_TEXT/UTF8
Codec ID/Info : UTF-8 Plain Text
Duration : 36 min 38 s
Bit rate : 34 b/s
Frame rate : 0.138 FPS
Count of elements : 303
Stream size : 9.15 KiB (0%)
Title : Suomi
Language : Finnish
Default : No
Forced : No

Text #13
ID : 16
Format : UTF-8
Codec ID : S_TEXT/UTF8
Codec ID/Info : UTF-8 Plain Text
Duration : 36 min 38 s
Bit rate : 36 b/s
Frame rate : 0.144 FPS
Count of elements : 316
Stream size : 9.72 KiB (0%)
Title : Suomi (Israel)
Language : Finnish
Default : No
Forced : No

Text #14
ID : 17
Format : UTF-8
Codec ID : S_TEXT/UTF8
Codec ID/Info : UTF-8 Plain Text
Duration : 34 min 40 s
Bit rate : 49 b/s
Frame rate : 0.208 FPS
Count of elements : 432
Stream size : 12.5 KiB (0%)
Title : Fran?ais
Language : French
Default : No
Forced : No

Text #15
ID : 18
Format : UTF-8
Codec ID : S_TEXT/UTF8
Codec ID/Info : UTF-8 Plain Text
Duration : 36 min 38 s
Bit rate : 56 b/s
Frame rate : 0.152 FPS
Count of elements : 335
Stream size : 15.1 KiB (0%)
Title : ?????
Language : Hebrew
Default : No
Forced : No

Text #16
ID : 19
Format : UTF-8
Codec ID : S_TEXT/UTF8
Codec ID/Info : UTF-8 Plain Text
Duration : 36 min 38 s
Bit rate : 33 b/s
Frame rate : 0.142 FPS
Count of elements : 313
Stream size : 8.87 KiB (0%)
Title : Hrvatski
Language : Croatian
Default : No
Forced : No

Text #17
ID : 20
Format : UTF-8
Codec ID : S_TEXT/UTF8
Codec ID/Info : UTF-8 Plain Text
Duration : 36 min 38 s
Bit rate : 33 b/s
Frame rate : 0.145 FPS
Count of elements : 319
Stream size : 9.10 KiB (0%)
Title : Magyar
Language : Hungarian
Default : No
Forced : No

Text #18
ID : 21
Format : UTF-8
Codec ID : S_TEXT/UTF8
Codec ID/Info : UTF-8 Plain Text
Duration : 36 min 38 s
Bit rate : 35 b/s
Frame rate : 0.141 FPS
Count of elements : 310
Stream size : 9.54 KiB (0%)
Title : Bahasa Indonesia
Language : Indonesian
Default : No
Forced : No

Text #19
ID : 22
Format : UTF-8
Codec ID : S_TEXT/UTF8
Codec ID/Info : UTF-8 Plain Text
Duration : 34 min 40 s
Bit rate : 42 b/s
Frame rate : 0.158 FPS
Count of elements : 329
Stream size : 10.8 KiB (0%)
Title : Italiano
Language : Italian
Default : No
Forced : No

Text #20
ID : 23
Format : UTF-8
Codec ID : S_TEXT/UTF8
Codec ID/Info : UTF-8 Plain Text
Duration : 36 min 38 s
Bit rate : 32 b/s
Frame rate : 0.159 FPS
Count of elements : 349
Stream size : 8.60 KiB (0%)
Title : 日本語
Language : Japanese
Default : No
Forced : No

Text #21
ID : 24
Format : UTF-8
Codec ID : S_TEXT/UTF8
Codec ID/Info : UTF-8 Plain Text
Duration : 36 min 38 s
Bit rate : 41 b/s
Frame rate : 0.152 FPS
Count of elements : 334
Stream size : 11.1 KiB (0%)
Title : ???
Language : Korean
Default : No
Forced : No

Text #22
ID : 25
Format : UTF-8
Codec ID : S_TEXT/UTF8
Codec ID/Info : UTF-8 Plain Text
Duration : 36 min 38 s
Bit rate : 34 b/s
Frame rate : 0.143 FPS
Count of elements : 314
Stream size : 9.15 KiB (0%)
Title : Bahasa Malaysia
Language : Malay
Default : No
Forced : No

Text #23
ID : 26
Format : UTF-8
Codec ID : S_TEXT/UTF8
Codec ID/Info : UTF-8 Plain Text
Duration : 36 min 37 s
Bit rate : 34 b/s
Frame rate : 0.127 FPS
Count of elements : 279
Stream size : 9.28 KiB (0%)
Title : Norsk Bokm?l
Language : Norwegian Bokmal
Default : No
Forced : No

Text #24
ID : 27
Format : UTF-8
Codec ID : S_TEXT/UTF8
Codec ID/Info : UTF-8 Plain Text
Duration : 34 min 40 s
Bit rate : 37 b/s
Frame rate : 0.140 FPS
Count of elements : 291
Stream size : 9.40 KiB (0%)
Title : Nederlands
Language : Dutch
Default : No
Forced : No

Text #25
ID : 28
Format : UTF-8
Codec ID : S_TEXT/UTF8
Codec ID/Info : UTF-8 Plain Text
Duration : 36 min 38 s
Bit rate : 32 b/s
Frame rate : 0.149 FPS
Count of elements : 328
Stream size : 8.79 KiB (0%)
Title : Polski
Language : Polish
Default : No
Forced : No

Text #26
ID : 29
Format : UTF-8
Codec ID : S_TEXT/UTF8
Codec ID/Info : UTF-8 Plain Text
Duration : 36 min 38 s
Bit rate : 35 b/s
Frame rate : 0.142 FPS
Count of elements : 313
Stream size : 9.52 KiB (0%)
Title : Português
Language : Portuguese
Default : No
Forced : No

Text #27
ID : 30
Format : UTF-8
Codec ID : S_TEXT/UTF8
Codec ID/Info : UTF-8 Plain Text
Duration : 36 min 38 s
Bit rate : 33 b/s
Frame rate : 0.141 FPS
Count of elements : 310
Stream size : 9.01 KiB (0%)
Title : Português (Brasil)
Language : Portuguese
Default : No
Forced : No

Text #28
ID : 31
Format : UTF-8
Codec ID : S_TEXT/UTF8
Codec ID/Info : UTF-8 Plain Text
Duration : 36 min 38 s
Bit rate : 33 b/s
Frame rate : 0.139 FPS
Count of elements : 306
Stream size : 9.00 KiB (0%)
Title : Roman?
Language : Romanian
Default : No
Forced : No

Text #29
ID : 32
Format : UTF-8
Codec ID : S_TEXT/UTF8
Codec ID/Info : UTF-8 Plain Text
Duration : 36 min 38 s
Bit rate : 56 b/s
Frame rate : 0.145 FPS
Count of elements : 318
Stream size : 15.3 KiB (0%)
Title : Русский
Language : Russian
Default : No
Forced : No

Text #30
ID : 33
Format : UTF-8
Codec ID : S_TEXT/UTF8
Codec ID/Info : UTF-8 Plain Text
Duration : 36 min 38 s
Bit rate : 88 b/s
Frame rate : 0.142 FPS
Count of elements : 312
Stream size : 23.8 KiB (0%)
Title : ???
Language : Thai
Default : No
Forced : No

Text #31
ID : 34
Format : UTF-8
Codec ID : S_TEXT/UTF8
Codec ID/Info : UTF-8 Plain Text
Duration : 36 min 38 s
Bit rate : 36 b/s
Frame rate : 0.138 FPS
Count of elements : 304
Stream size : 9.68 KiB (0%)
Title : Türk?e
Language : Turkish
Default : No
Forced : No

Text #32
ID : 35
Format : UTF-8
Codec ID : S_TEXT/UTF8
Codec ID/Info : UTF-8 Plain Text
Duration : 36 min 38 s
Bit rate : 57 b/s
Frame rate : 0.141 FPS
Count of elements : 311
Stream size : 15.5 KiB (0%)
Title : Укра?нська
Language : Ukrainian
Default : No
Forced : No

Text #33
ID : 36
Format : UTF-8
Codec ID : S_TEXT/UTF8
Codec ID/Info : UTF-8 Plain Text
Duration : 36 min 38 s
Bit rate : 48 b/s
Frame rate : 0.142 FPS
Count of elements : 312
Stream size : 13.1 KiB (0%)
Title : Ti?ng Vi?t
Language : Vietnamese
Default : No
Forced : No

Menu
00:00:00.000 : en:Part 01
00:35:43.000 : en:Credits


部分资源为软字幕,移动端推荐播放器:MxPlayer,nPlayer,infuse ,其他播放器请自行尝试。

部分资源为软字幕,电脑端推荐播放器:PotPlayer,完美解码,KMPLAYER,其他播放器请自行尝试。

下载端推荐纯BT下载软件:qBittorrent,Bitcomet,uTorrent ,其他下载软件请自行尝试。不支持吸血迅雷。

上传的附件:
最新回复 (0)