2024 日本 爱情 WEB-1080P Eye Love You[全10集][简繁英字幕].Eye.Love.You.S01.2024.1080p.NF.WEB-DL.DDP2.0.H264-LelveTV 17.40GB

MAY20919R 2024-05-15 23:27 1045


完整标题:Eye Love You[全10集][简繁英字幕].Eye.Love.You.S01.2024.1080p.NF.WEB-DL.DDP2.0.H264-LelveTV 17.40GB




◎标  题 Eye Love You
◎译  名 アイ ラブ ユー
◎年  代 2024
◎产  地 日本
◎类  别 爱情 / 奇幻
◎语  言 日语
◎IMDb链接 https://www.imdb.com/title//
◎豆瓣评分 5.6/10 (725人评价)
◎豆瓣链接 https://movie.douban.com/subject/36642121/
◎导  演 冈本伸吾 Shingo Okamoto
      福田亮介 Ryôsuke Fukuda
◎编  剧 三浦希纱 Kisa Miura
      山下昴 Subaru Yamashita
◎演  员 二阶堂富美 Fumi Nikaidou
      蔡钟协 Jong-hyeop Chae
      中川大志 Taishi Nakagawa
      弦濑聪一
      鸣海唯 Yui Narumi
      立川志らく Shiraku Tatekawa
      清水寻也 Hiroya Shimizu
      山下美月 Mizuki Yamashita
      杉本哲太 Tetta Sugimoto

◎简  介
    本宫侑里因为某次事故,拥有只要看到对方的眼睛就能听到对方心声的“心灵感应”能力。拥有了这个能力的侑里,听到了不想知道的别人的真心话而暗自受伤的事也很多。她不敢去了解别人的真实想法,也不敢把自己的真实想法展示给别人看,也不敢和别人过分亲密,甚至放弃了恋爱。有一天,侑里遇见了韩国人尹泰晤。性格开朗、和蔼可亲的他,因其天真无邪而受到周围人的喜爱,同时对恋爱也超直率纯真。和这样的他偶然四目相对的时候,听到的语言竟然是韩语!如果和不知道内心声音的泰晤,说不定已经放弃的恋爱就能……这样想着。像太阳一样明亮直接的泰晤的存在,将如何融化无法袒露自己真实想法的侑里那封闭的心呢?

##### MediaInfo ######
General
Unique ID : 39215077008312215687995038884160545990 (0x1D808C925A79D9BB86DC57B2C1D324C6)
Complete name : Eye.Love.You.S01E01.2024.1080p.NF.WEB-DL.DDP2.0.H264-LelveTV.mkv
Duration : 1 h 0 min
Overall bit rate mode : Variable
Overall bit rate : 5 129 kb/s

Video
ID : 1
Format : AVC
Format/Info : Advanced Video Codec
Format profile : Main@L4
Format settings : CABAC / 3 Ref Frames
Format settings, CABAC : Yes
Format settings, Reference frames : 3 frames
Codec ID : V_MPEG4/ISO/AVC
Duration : 1 h 0 min
Bit rate mode : Variable
Bit rate : 5 000 kb/s
Maximum bit rate : 7 500 kb/s
Width : 1 920 pixels
Height : 1 080 pixels
Display aspect ratio : 16:9
Frame rate mode : Constant
Frame rate : 29.970 (29970/1000) FPS
Original frame rate : 29.970 (30000/1001) FPS
Color space : YUV
Chroma subsampling : 4:2:0
Bit depth : 8 bits
Scan type : Progressive
Bits/(Pixel*Frame) : 0.080
Stream size : 2.11 GiB (97%)
Writing library : x264 core 148 r2727 7d026e8
Encoding settings : cabac=1 / ref=3 / deblock=1:0:0 / analyse=0x1:0x111 / me=umh / subme=10 / psy=1 / psy_rd=1.00:0.00 / mixed_ref=1 / me_range=24 / chroma_me=1 / trellis=2 / 8x8dct=0 / cqm=0 / deadzone=21,11 / fast_pskip=1 / chroma_qp_offset=-2 / threads=6 / lookahead_threads=1 / sliced_threads=0 / nr=0 / decimate=1 / interlaced=0 / bluray_compat=0 / stitchable=1 / constrained_intra=0 / bframes=2 / b_pyramid=0 / b_adapt=2 / b_bias=0 / direct=3 / weightb=1 / open_gop=0 / weightp=2 / keyint=300 / keyint_min=151 / scenecut=0 / intra_refresh=0 / rc_lookahead=60 / rc=2pass / mbtree=1 / bitrate=5000 / ratetol=1.0 / qcomp=0.50 / qpmin=6 / qpmax=51 / qpstep=4 / cplxblur=20.0 / qblur=0.5 / vbv_maxrate=7500 / vbv_bufsize=10000 / nal_hrd=vbr / filler=0 / ip_ratio=1.40 / aq=1:1.00
Default : Yes
Forced : No

Audio
ID : 2
Format : E-AC-3
Format/Info : Enhanced AC-3
Commercial name : Dolby Digital Plus
Codec ID : A_EAC3
Duration : 1 h 0 min
Bit rate mode : Constant
Bit rate : 128 kb/s
Channel(s) : 2 channels
Channel layout : L R
Sampling rate : 48.0 kHz
Frame rate : 31.250 FPS (1536 SPF)
Compression mode : Lossy
Stream size : 55.4 MiB (2%)
Title : 日本語 [Dolby Digital Plus 2.0]
Language : Japanese
Service kind : Complete Main
Default : Yes
Forced : No

Text #1
ID : 3
Format : UTF-8
Codec ID : S_TEXT/UTF8
Codec ID/Info : UTF-8 Plain Text
Duration : 1 h 0 min
Bit rate : 66 b/s
Frame rate : 0.233 FPS
Count of elements : 843
Stream size : 29.2 KiB (0%)
Title : 日本語 [SDH]
Language : Japanese
Default : No
Forced : No

Text #2
ID : 4
Format : UTF-8
Codec ID : S_TEXT/UTF8
Codec ID/Info : UTF-8 Plain Text
Duration : 1 h 0 min
Bit rate : 42 b/s
Frame rate : 0.215 FPS
Count of elements : 776
Stream size : 18.8 KiB (0%)
Title : 中文(简体)
Language : Chinese
Default : Yes
Forced : No

Text #3
ID : 5
Format : UTF-8
Codec ID : S_TEXT/UTF8
Codec ID/Info : UTF-8 Plain Text
Duration : 1 h 0 min
Bit rate : 42 b/s
Frame rate : 0.215 FPS
Count of elements : 776
Stream size : 18.8 KiB (0%)
Title : 中文 (繁體)
Language : Chinese
Default : No
Forced : No

Text #4
ID : 6
Format : UTF-8
Codec ID : S_TEXT/UTF8
Codec ID/Info : UTF-8 Plain Text
Duration : 1 h 0 min
Bit rate : 73 b/s
Frame rate : 0.215 FPS
Count of elements : 777
Stream size : 32.4 KiB (0%)
Title : ???????
Language : Arabic
Default : No
Forced : No

Text #5
ID : 7
Format : UTF-8
Codec ID : S_TEXT/UTF8
Codec ID/Info : UTF-8 Plain Text
Duration : 1 h 0 min
Bit rate : 45 b/s
Frame rate : 0.215 FPS
Count of elements : 776
Stream size : 20.1 KiB (0%)
Title : Deutsch
Language : German
Default : No
Forced : No

Text #6
ID : 8
Format : UTF-8
Codec ID : S_TEXT/UTF8
Codec ID/Info : UTF-8 Plain Text
Duration : 1 h 0 min
Bit rate : 42 b/s
Frame rate : 0.214 FPS
Count of elements : 773
Stream size : 19.0 KiB (0%)
Title : English
Language : English
Default : No
Forced : No

Text #7
ID : 9
Format : UTF-8
Codec ID : S_TEXT/UTF8
Codec ID/Info : UTF-8 Plain Text
Duration : 1 h 0 min
Bit rate : 44 b/s
Frame rate : 0.215 FPS
Count of elements : 776
Stream size : 19.6 KiB (0%)
Title : Espa?ol
Language : Spanish
Default : No
Forced : No

Text #8
ID : 10
Format : UTF-8
Codec ID : S_TEXT/UTF8
Codec ID/Info : UTF-8 Plain Text
Duration : 1 h 0 min
Bit rate : 47 b/s
Frame rate : 0.209 FPS
Count of elements : 757
Stream size : 21.1 KiB (0%)
Title : Espa?ol (Espa?a)
Language : Spanish
Default : No
Forced : No

Text #9
ID : 11
Format : UTF-8
Codec ID : S_TEXT/UTF8
Codec ID/Info : UTF-8 Plain Text
Duration : 1 h 0 min
Bit rate : 46 b/s
Frame rate : 0.213 FPS
Count of elements : 770
Stream size : 20.3 KiB (0%)
Title : Fran?ais
Language : French
Default : No
Forced : No

Text #10
ID : 12
Format : UTF-8
Codec ID : S_TEXT/UTF8
Codec ID/Info : UTF-8 Plain Text
Duration : 1 h 0 min
Bit rate : 44 b/s
Frame rate : 0.216 FPS
Count of elements : 780
Stream size : 19.8 KiB (0%)
Title : Bahasa Indonesia
Language : Indonesian
Default : No
Forced : No

Text #11
ID : 13
Format : UTF-8
Codec ID : S_TEXT/UTF8
Codec ID/Info : UTF-8 Plain Text
Duration : 1 h 0 min
Bit rate : 45 b/s
Frame rate : 0.215 FPS
Count of elements : 777
Stream size : 19.9 KiB (0%)
Title : Italiano
Language : Italian
Default : No
Forced : No

Text #12
ID : 14
Format : UTF-8
Codec ID : S_TEXT/UTF8
Codec ID/Info : UTF-8 Plain Text
Duration : 59 min 17 s
Bit rate : 45 b/s
Frame rate : 0.211 FPS
Count of elements : 750
Stream size : 20.0 KiB (0%)
Title : ???
Language : Korean
Default : No
Forced : No

Text #13
ID : 15
Format : UTF-8
Codec ID : S_TEXT/UTF8
Codec ID/Info : UTF-8 Plain Text
Duration : 1 h 0 min
Bit rate : 44 b/s
Frame rate : 0.215 FPS
Count of elements : 777
Stream size : 19.6 KiB (0%)
Title : Bahasa Malaysia
Language : Malay
Default : No
Forced : No

Text #14
ID : 16
Format : UTF-8
Codec ID : S_TEXT/UTF8
Codec ID/Info : UTF-8 Plain Text
Duration : 1 h 0 min
Bit rate : 43 b/s
Frame rate : 0.215 FPS
Count of elements : 777
Stream size : 19.1 KiB (0%)
Title : Nederlands
Language : Dutch
Default : No
Forced : No

Text #15
ID : 17
Format : UTF-8
Codec ID : S_TEXT/UTF8
Codec ID/Info : UTF-8 Plain Text
Duration : 1 h 0 min
Bit rate : 34 b/s
Frame rate : 0.213 FPS
Count of elements : 770
Stream size : 15.4 KiB (0%)
Title : Polski
Language : Polish
Default : No
Forced : No

Text #16
ID : 18
Format : UTF-8
Codec ID : S_TEXT/UTF8
Codec ID/Info : UTF-8 Plain Text
Duration : 1 h 0 min
Bit rate : 43 b/s
Frame rate : 0.214 FPS
Count of elements : 775
Stream size : 19.1 KiB (0%)
Title : Português (Brasil)
Language : Portuguese
Default : No
Forced : No

Text #17
ID : 19
Format : UTF-8
Codec ID : S_TEXT/UTF8
Codec ID/Info : UTF-8 Plain Text
Duration : 1 h 0 min
Bit rate : 44 b/s
Frame rate : 0.215 FPS
Count of elements : 776
Stream size : 19.5 KiB (0%)
Title : Roman?
Language : Romanian
Default : No
Forced : No

Text #18
ID : 20
Format : UTF-8
Codec ID : S_TEXT/UTF8
Codec ID/Info : UTF-8 Plain Text
Duration : 1 h 0 min
Bit rate : 121 b/s
Frame rate : 0.215 FPS
Count of elements : 777
Stream size : 53.6 KiB (0%)
Title : ???
Language : Thai
Default : No
Forced : No

Text #19
ID : 21
Format : UTF-8
Codec ID : S_TEXT/UTF8
Codec ID/Info : UTF-8 Plain Text
Duration : 1 h 0 min
Bit rate : 61 b/s
Frame rate : 0.215 FPS
Count of elements : 779
Stream size : 27.0 KiB (0%)
Title : Ti?ng Vi?t
Language : Vietnamese
Default : No
Forced : No

Menu
00:00:00.000 : en:Part 01
01:00:13.000 : en:Credits


部分资源为软字幕,移动端推荐播放器:MxPlayer,nPlayer,infuse ,其他播放器请自行尝试。

部分资源为软字幕,电脑端推荐播放器:PotPlayer,完美解码,KMPLAYER,其他播放器请自行尝试。

下载端推荐纯BT下载软件:qBittorrent,Bitcomet,uTorrent ,其他下载软件请自行尝试。不支持吸血迅雷。

上传的附件:
最新回复 (0)