2024 美国 剧情 WEB-1080P 联邦调查局:通缉要犯 第五季[第12集][无字片源].FBI.Most.Wanted.S05.1080p.Paramount/.WEB-DL.DDP.5.1.H.264-BlackTV 1.37GB

Katt2092T 2024-05-15 23:27 838


完整标题:联邦调查局:通缉要犯 第五季[第12集][无字片源].FBI.Most.Wanted.S05.1080p.Paramount/.WEB-DL.DDP.5.1.H.264-BlackTV 1.37GB




◎标  题 联邦调查局:通缉要犯 第五季
◎片  名 FBI: Most Wanted Season 5
◎年  代 2024
◎产  地 美国
◎类  别 剧情 / 动作 / 犯罪
◎语  言 英语
◎IMDb评分 7.2/10 (81人评价)
◎IMDb链接 https://www.imdb.com/title/tt20195168/
◎豆瓣链接 https://movie.douban.com/subject/35981606/

◎简  介
    官方宣布第5季

##### MediaInfo ######
General
Unique ID : 326543264531777758539191725519912344722 (0xF5A9F1F409AD4836BF1A5735B30C9C92)
Complete name : FBI.Most.Wanted.S05E12.Derby.Day.1080p.Paramount+.WEB-DL.DDP.5.1.H.264-BlackTV.mkv
Duration : 42 min 29 s
Overall bit rate : 4 617 kb/s

Video
ID : 1
Format : AVC
Format/Info : Advanced Video Codec
Format profile : High@L4
Format settings : CABAC / 4 Ref Frames
Format settings, CABAC : Yes
Format settings, Reference frames : 4 frames
Format settings, GOP : M=4, N=48
Codec ID : V_MPEG4/ISO/AVC
Duration : 42 min 29 s
Bit rate : 4 500 kb/s
Width : 1 920 pixels
Height : 1 080 pixels
Display aspect ratio : 16:9
Frame rate mode : Constant
Frame rate : 23.976 (24000/1001) FPS
Color space : YUV
Chroma subsampling : 4:2:0
Bit depth : 8 bits
Scan type : Progressive
Bits/(Pixel*Frame) : 0.091
Stream size : 1.31 GiB (96%)
Writing library : x264 core 164 r3107 a8b68eb
Encoding settings : cabac=1 / ref=4 / deblock=1:0:0 / analyse=0x3:0x113 / me=hex / subme=8 / psy=1 / psy_rd=1.00:0.00 / mixed_ref=1 / me_range=16 / chroma_me=1 / trellis=2 / 8x8dct=1 / cqm=0 / deadzone=21,11 / fast_pskip=1 / chroma_qp_offset=-2 / threads=12 / lookahead_threads=2 / sliced_threads=0 / nr=0 / decimate=1 / interlaced=0 / bluray_compat=0 / stitchable=1 / constrained_intra=0 / bframes=3 / b_pyramid=2 / b_adapt=1 / b_bias=0 / direct=3 / weightb=1 / open_gop=0 / weightp=2 / keyint=48 / keyint_min=4 / scenecut=0 / intra_refresh=0 / rc_lookahead=48 / rc=2pass / mbtree=1 / bitrate=4500 / ratetol=1.0 / qcomp=0.60 / qpmin=0 / qpmax=69 / qpstep=4 / cplxblur=20.0 / qblur=0.5 / vbv_maxrate=5400 / vbv_bufsize=4500 / nal_hrd=none / filler=0 / ip_ratio=1.40 / aq=1:1.00
Language : English
Default : Yes
Forced : No
Color range : Limited
Color primaries : BT.709
Transfer characteristics : BT.709
Matrix coefficients : BT.709

Audio
ID : 2
Format : E-AC-3
Format/Info : Enhanced AC-3
Commercial name : Dolby Digital Plus
Codec ID : A_EAC3
Duration : 42 min 29 s
Bit rate mode : Constant
Bit rate : 192 kb/s
Channel(s) : 6 channels
Channel layout : L R C LFE Ls Rs
Sampling rate : 48.0 kHz
Frame rate : 31.250 FPS (1536 SPF)
Compression mode : Lossy
Stream size : 58.4 MiB (4%)
Language : English
Service kind : Complete Main
Default : Yes
Forced : No

Menu
00:00:00.000 : en:Chapter 01


部分资源为软字幕,移动端推荐播放器:MxPlayer,nPlayer,infuse ,其他播放器请自行尝试。

部分资源为软字幕,电脑端推荐播放器:PotPlayer,完美解码,KMPLAYER,其他播放器请自行尝试。

下载端推荐纯BT下载软件:qBittorrent,Bitcomet,uTorrent ,其他下载软件请自行尝试。不支持吸血迅雷。

上传的附件:
最新回复 (0)