2024 韩国 剧情 WEB-1080P 没有秘密[第01-04集][简繁英字幕].Frankly.Speaking.S01.2024.1080p.NF.WEB-DL.DDP2.0.H264-LelveTV 9.61GB

Katt2092T 2024-05-15 23:28 2033


完整标题:没有秘密[第01-04集][简繁英字幕].Frankly.Speaking.S01.2024.1080p.NF.WEB-DL.DDP2.0.H264-LelveTV 9.61GB




◎标  题 没有秘密
◎译  名 没有秘密(剧版) / Frankly Speaking / No Secrets
◎片  名 비밀은 없어
◎年  代 2024
◎产  地 韩国
◎类  别 剧情 / 喜剧 / 爱情 / 奇幻
◎语  言 韩语
◎IMDb评分 5/10 (14人评价)
◎IMDb链接 https://www.imdb.com/title/tt32138907/
◎豆瓣链接 https://movie.douban.com/subject/36099308/
◎导  演 张智妍
◎编  剧 崔京善
◎演  员 高庚杓 Kyung-pyo Go
      姜汉娜 Han-na Kang
      朱钟赫 Jong-Hyuk Joo

◎简  介
    一名受人尊敬的主播(高庚杓 饰)突然在播报时失去自我约束力,此举吸引了一名电视台编剧(姜汉娜 饰)的注意,并邀请他上自己的综艺节目。

##### MediaInfo ######
General
Unique ID : 153354009153946663922495172511729943562 (0x735EE867AFF036FCB2FE7F66E8BB840A)
Complete name : Frankly.Speaking.S01E01.2024.1080p.NF.WEB-DL.DDP2.0.H264-LelveTV.mkv
Duration : 1 h 2 min
Overall bit rate mode : Variable
Overall bit rate : 5 126 kb/s

Video
ID : 1
Format : AVC
Format/Info : Advanced Video Codec
Format profile : Main@L4
Format settings : CABAC / 3 Ref Frames
Format settings, CABAC : Yes
Format settings, Reference frames : 3 frames
Codec ID : V_MPEG4/ISO/AVC
Duration : 1 h 2 min
Bit rate mode : Variable
Bit rate : 5 000 kb/s
Maximum bit rate : 7 500 kb/s
Width : 1 920 pixels
Height : 1 080 pixels
Display aspect ratio : 16:9
Frame rate mode : Constant
Frame rate : 23.976 (24000/1001) FPS
Color space : YUV
Chroma subsampling : 4:2:0
Bit depth : 8 bits
Scan type : Progressive
Bits/(Pixel*Frame) : 0.101
Stream size : 2.17 GiB (97%)
Writing library : x264 core 148 r2727 7d026e8
Encoding settings : cabac=1 / ref=3 / deblock=1:0:0 / analyse=0x1:0x111 / me=umh / subme=10 / psy=1 / psy_rd=1.00:0.00 / mixed_ref=1 / me_range=24 / chroma_me=1 / trellis=2 / 8x8dct=0 / cqm=0 / deadzone=21,11 / fast_pskip=1 / chroma_qp_offset=-2 / threads=6 / lookahead_threads=1 / sliced_threads=0 / nr=0 / decimate=1 / interlaced=0 / bluray_compat=0 / stitchable=1 / constrained_intra=0 / bframes=2 / b_pyramid=0 / b_adapt=2 / b_bias=0 / direct=3 / weightb=1 / open_gop=0 / weightp=2 / keyint=240 / keyint_min=121 / scenecut=0 / intra_refresh=0 / rc_lookahead=48 / rc=2pass / mbtree=1 / bitrate=5000 / ratetol=1.0 / qcomp=0.50 / qpmin=6 / qpmax=51 / qpstep=4 / cplxblur=20.0 / qblur=0.5 / vbv_maxrate=7500 / vbv_bufsize=10000 / nal_hrd=vbr / filler=0 / ip_ratio=1.40 / aq=1:1.00
Default : Yes
Forced : No

Audio
ID : 2
Format : E-AC-3
Format/Info : Enhanced AC-3
Commercial name : Dolby Digital Plus
Codec ID : A_EAC3
Duration : 1 h 2 min
Bit rate mode : Constant
Bit rate : 128 kb/s
Channel(s) : 2 channels
Channel layout : L R
Sampling rate : 48.0 kHz
Frame rate : 31.250 FPS (1536 SPF)
Compression mode : Lossy
Stream size : 57.0 MiB (2%)
Title : ??? [Dolby Digital Plus 2.0]
Language : Korean
Service kind : Complete Main
Default : Yes
Forced : No

Text #1
ID : 3
Format : UTF-8
Codec ID : S_TEXT/UTF8
Codec ID/Info : UTF-8 Plain Text
Duration : 1 h 1 min
Bit rate : 135 b/s
Frame rate : 0.391 FPS
Count of elements : 1445
Stream size : 61.1 KiB (0%)
Title : ??? [SDH]
Language : Korean
Default : No
Forced : No

Text #2
ID : 4
Format : UTF-8
Codec ID : S_TEXT/UTF8
Codec ID/Info : UTF-8 Plain Text
Duration : 1 h 1 min
Bit rate : 69 b/s
Frame rate : 0.298 FPS
Count of elements : 1093
Stream size : 31.3 KiB (0%)
Title : 中文(简体)
Language : Chinese
Default : Yes
Forced : No

Text #3
ID : 5
Format : UTF-8
Codec ID : S_TEXT/UTF8
Codec ID/Info : UTF-8 Plain Text
Duration : 1 h 1 min
Bit rate : 70 b/s
Frame rate : 0.296 FPS
Count of elements : 1083
Stream size : 31.5 KiB (0%)
Title : 中文 (繁體)
Language : Chinese
Default : No
Forced : No

Text #4
ID : 6
Format : UTF-8
Codec ID : S_TEXT/UTF8
Codec ID/Info : UTF-8 Plain Text
Duration : 1 h 1 min
Bit rate : 127 b/s
Frame rate : 0.296 FPS
Count of elements : 1083
Stream size : 56.9 KiB (0%)
Title : ???????
Language : Arabic
Default : No
Forced : No

Text #5
ID : 7
Format : UTF-8
Codec ID : S_TEXT/UTF8
Codec ID/Info : UTF-8 Plain Text
Duration : 1 h 1 min
Bit rate : 67 b/s
Frame rate : 0.289 FPS
Count of elements : 1059
Stream size : 30.1 KiB (0%)
Title : ?e?tina
Language : Czech
Default : No
Forced : No

Text #6
ID : 8
Format : UTF-8
Codec ID : S_TEXT/UTF8
Codec ID/Info : UTF-8 Plain Text
Duration : 1 h 1 min
Bit rate : 73 b/s
Frame rate : 0.298 FPS
Count of elements : 1091
Stream size : 32.9 KiB (0%)
Title : Dansk
Language : Danish
Default : No
Forced : No

Text #7
ID : 9
Format : UTF-8
Codec ID : S_TEXT/UTF8
Codec ID/Info : UTF-8 Plain Text
Duration : 1 h 1 min
Bit rate : 80 b/s
Frame rate : 0.275 FPS
Count of elements : 1006
Stream size : 36.1 KiB (0%)
Title : Deutsch
Language : German
Default : No
Forced : No

Text #8
ID : 10
Format : UTF-8
Codec ID : S_TEXT/UTF8
Codec ID/Info : UTF-8 Plain Text
Duration : 1 h 1 min
Bit rate : 124 b/s
Frame rate : 0.282 FPS
Count of elements : 1033
Stream size : 55.7 KiB (0%)
Title : Ελληνικ?
Language : Greek
Default : No
Forced : No

Text #9
ID : 11
Format : UTF-8
Codec ID : S_TEXT/UTF8
Codec ID/Info : UTF-8 Plain Text
Duration : 1 h 1 min
Bit rate : 79 b/s
Frame rate : 0.295 FPS
Count of elements : 1079
Stream size : 35.4 KiB (0%)
Title : English
Language : English
Default : No
Forced : No

Text #10
ID : 12
Format : UTF-8
Codec ID : S_TEXT/UTF8
Codec ID/Info : UTF-8 Plain Text
Duration : 1 h 1 min
Bit rate : 72 b/s
Frame rate : 0.297 FPS
Count of elements : 1089
Stream size : 32.3 KiB (0%)
Title : Espa?ol
Language : Spanish
Default : No
Forced : No

Text #11
ID : 13
Format : UTF-8
Codec ID : S_TEXT/UTF8
Codec ID/Info : UTF-8 Plain Text
Duration : 1 h 1 min
Bit rate : 74 b/s
Frame rate : 0.273 FPS
Count of elements : 1001
Stream size : 33.2 KiB (0%)
Title : Espa?ol (Espa?a)
Language : Spanish
Default : No
Forced : No

Text #12
ID : 14
Format : UTF-8
Codec ID : S_TEXT/UTF8
Codec ID/Info : UTF-8 Plain Text
Duration : 1 h 1 min
Bit rate : 64 b/s
Frame rate : 0.286 FPS
Count of elements : 1046
Stream size : 28.6 KiB (0%)
Title : Suomi
Language : Finnish
Default : No
Forced : No

Text #13
ID : 15
Format : UTF-8
Codec ID : S_TEXT/UTF8
Codec ID/Info : UTF-8 Plain Text
Duration : 1 h 1 min
Bit rate : 79 b/s
Frame rate : 0.298 FPS
Count of elements : 1092
Stream size : 35.5 KiB (0%)
Title : Suomi (Israel)
Language : Finnish
Default : No
Forced : No

Text #14
ID : 16
Format : UTF-8
Codec ID : S_TEXT/UTF8
Codec ID/Info : UTF-8 Plain Text
Duration : 1 h 1 min
Bit rate : 71 b/s
Frame rate : 0.296 FPS
Count of elements : 1085
Stream size : 32.0 KiB (0%)
Title : Fran?ais
Language : French
Default : No
Forced : No

Text #15
ID : 17
Format : UTF-8
Codec ID : S_TEXT/UTF8
Codec ID/Info : UTF-8 Plain Text
Duration : 1 h 1 min
Bit rate : 114 b/s
Frame rate : 0.290 FPS
Count of elements : 1063
Stream size : 51.3 KiB (0%)
Title : ?????
Language : Hebrew
Default : No
Forced : No

Text #16
ID : 18
Format : UTF-8
Codec ID : S_TEXT/UTF8
Codec ID/Info : UTF-8 Plain Text
Duration : 1 h 1 min
Bit rate : 67 b/s
Frame rate : 0.296 FPS
Count of elements : 1083
Stream size : 30.4 KiB (0%)
Title : Hrvatski
Language : Croatian
Default : No
Forced : No

Text #17
ID : 19
Format : UTF-8
Codec ID : S_TEXT/UTF8
Codec ID/Info : UTF-8 Plain Text
Duration : 1 h 1 min
Bit rate : 72 b/s
Frame rate : 0.273 FPS
Count of elements : 999
Stream size : 32.3 KiB (0%)
Title : Magyar
Language : Hungarian
Default : No
Forced : No

Text #18
ID : 20
Format : UTF-8
Codec ID : S_TEXT/UTF8
Codec ID/Info : UTF-8 Plain Text
Duration : 1 h 1 min
Bit rate : 77 b/s
Frame rate : 0.298 FPS
Count of elements : 1090
Stream size : 34.6 KiB (0%)
Title : Bahasa Indonesia
Language : Indonesian
Default : No
Forced : No

Text #19
ID : 21
Format : UTF-8
Codec ID : S_TEXT/UTF8
Codec ID/Info : UTF-8 Plain Text
Duration : 1 h 1 min
Bit rate : 70 b/s
Frame rate : 0.287 FPS
Count of elements : 1051
Stream size : 31.4 KiB (0%)
Title : Italiano
Language : Italian
Default : No
Forced : No

Text #20
ID : 22
Format : UTF-8
Codec ID : S_TEXT/UTF8
Codec ID/Info : UTF-8 Plain Text
Duration : 1 h 1 min
Bit rate : 71 b/s
Frame rate : 0.280 FPS
Count of elements : 1026
Stream size : 32.0 KiB (0%)
Title : 日本語
Language : Japanese
Default : No
Forced : No

Text #21
ID : 23
Format : UTF-8
Codec ID : S_TEXT/UTF8
Codec ID/Info : UTF-8 Plain Text
Duration : 1 h 1 min
Bit rate : 75 b/s
Frame rate : 0.296 FPS
Count of elements : 1083
Stream size : 33.6 KiB (0%)
Title : Bahasa Malaysia
Language : Malay
Default : No
Forced : No

Text #22
ID : 24
Format : UTF-8
Codec ID : S_TEXT/UTF8
Codec ID/Info : UTF-8 Plain Text
Duration : 1 h 1 min
Bit rate : 67 b/s
Frame rate : 0.264 FPS
Count of elements : 967
Stream size : 30.0 KiB (0%)
Title : Norsk Bokm?l
Language : Norwegian Bokmal
Default : No
Forced : No

Text #23
ID : 25
Format : UTF-8
Codec ID : S_TEXT/UTF8
Codec ID/Info : UTF-8 Plain Text
Duration : 1 h 1 min
Bit rate : 67 b/s
Frame rate : 0.225 FPS
Count of elements : 823
Stream size : 30.2 KiB (0%)
Title : Nederlands
Language : Dutch
Default : No
Forced : No

Text #24
ID : 26
Format : UTF-8
Codec ID : S_TEXT/UTF8
Codec ID/Info : UTF-8 Plain Text
Duration : 1 h 1 min
Bit rate : 69 b/s
Frame rate : 0.295 FPS
Count of elements : 1081
Stream size : 30.9 KiB (0%)
Title : Polski
Language : Polish
Default : No
Forced : No

Text #25
ID : 27
Format : UTF-8
Codec ID : S_TEXT/UTF8
Codec ID/Info : UTF-8 Plain Text
Duration : 1 h 1 min
Bit rate : 77 b/s
Frame rate : 0.291 FPS
Count of elements : 1067
Stream size : 34.5 KiB (0%)
Title : Português
Language : Portuguese
Default : No
Forced : No

Text #26
ID : 28
Format : UTF-8
Codec ID : S_TEXT/UTF8
Codec ID/Info : UTF-8 Plain Text
Duration : 1 h 1 min
Bit rate : 68 b/s
Frame rate : 0.284 FPS
Count of elements : 1040
Stream size : 30.7 KiB (0%)
Title : Português (Brasil)
Language : Portuguese
Default : No
Forced : No

Text #27
ID : 29
Format : UTF-8
Codec ID : S_TEXT/UTF8
Codec ID/Info : UTF-8 Plain Text
Duration : 1 h 1 min
Bit rate : 71 b/s
Frame rate : 0.228 FPS
Count of elements : 834
Stream size : 31.9 KiB (0%)
Title : Roman?
Language : Romanian
Default : No
Forced : No

Text #28
ID : 30
Format : UTF-8
Codec ID : S_TEXT/UTF8
Codec ID/Info : UTF-8 Plain Text
Duration : 1 h 1 min
Bit rate : 121 b/s
Frame rate : 0.299 FPS
Count of elements : 1094
Stream size : 54.2 KiB (0%)
Title : Русский
Language : Russian
Default : No
Forced : No

Text #29
ID : 31
Format : UTF-8
Codec ID : S_TEXT/UTF8
Codec ID/Info : UTF-8 Plain Text
Duration : 1 h 1 min
Bit rate : 71 b/s
Frame rate : 0.296 FPS
Count of elements : 1083
Stream size : 32.1 KiB (0%)
Title : Svenska
Language : Swedish
Default : No
Forced : No

Text #30
ID : 32
Format : UTF-8
Codec ID : S_TEXT/UTF8
Codec ID/Info : UTF-8 Plain Text
Duration : 1 h 1 min
Bit rate : 202 b/s
Frame rate : 0.298 FPS
Count of elements : 1093
Stream size : 90.6 KiB (0%)
Title : ???
Language : Thai
Default : No
Forced : No

Text #31
ID : 33
Format : UTF-8
Codec ID : S_TEXT/UTF8
Codec ID/Info : UTF-8 Plain Text
Duration : 1 h 1 min
Bit rate : 75 b/s
Frame rate : 0.295 FPS
Count of elements : 1080
Stream size : 33.9 KiB (0%)
Title : Türk?e
Language : Turkish
Default : No
Forced : No

Text #32
ID : 34
Format : UTF-8
Codec ID : S_TEXT/UTF8
Codec ID/Info : UTF-8 Plain Text
Duration : 1 h 1 min
Bit rate : 122 b/s
Frame rate : 0.299 FPS
Count of elements : 1095
Stream size : 54.9 KiB (0%)
Title : Укра?нська
Language : Ukrainian
Default : No
Forced : No

Text #33
ID : 35
Format : UTF-8
Codec ID : S_TEXT/UTF8
Codec ID/Info : UTF-8 Plain Text
Duration : 1 h 1 min
Bit rate : 102 b/s
Frame rate : 0.295 FPS
Count of elements : 1081
Stream size : 45.8 KiB (0%)
Title : Ti?ng Vi?t
Language : Vietnamese
Default : No
Forced : No

Menu
00:00:00.000 : en:Part 01
01:01:49.000 : en:Credits


部分资源为软字幕,移动端推荐播放器:MxPlayer,nPlayer,infuse ,其他播放器请自行尝试。

部分资源为软字幕,电脑端推荐播放器:PotPlayer,完美解码,KMPLAYER,其他播放器请自行尝试。

下载端推荐纯BT下载软件:qBittorrent,Bitcomet,uTorrent ,其他下载软件请自行尝试。不支持吸血迅雷。

上传的附件:
最新回复 (0)