2024 美国 喜剧 WEB-4K 战利品 第二季[第08集][简繁英字幕].Loot.S02.2160p.Apple.TV/.WEB-DL.DDP.5.1.Atmos.HDR10/.H.265-BlackTV 4.61GB

MAY20919R 2024-05-15 23:29 918


完整标题:战利品 第二季[第08集][简繁英字幕].Loot.S02.2160p.Apple.TV/.WEB-DL.DDP.5.1.Atmos.HDR10/.H.265-BlackTV 4.61GB




◎标  题 战利品 第二季
◎译  名 钱钱钱钱(台)
◎片  名 Loot Season 2
◎年  代 2024
◎产  地 美国
◎类  别 喜剧
◎语  言 英语
◎IMDb评分 6.8/10 (58人评价)
◎IMDb链接 https://www.imdb.com/title/tt21262272/
◎豆瓣链接 https://movie.douban.com/subject/36057819/
◎演  员 玛娅·鲁道夫 Maya Rudolph
      MJ·罗德里格斯 Mj Rodriguez
      乔尔·金·布斯特 Joel Kim Booster
      罗恩·芬奇斯 Ron Funches
      亚当·斯科特 Adam Scott

◎简  介
    “Loot” returns a year after Molly Wells (Maya Rudolph) settles her very public divorce from tech billionaire John Novak (Adam Scott), and we find her thriving in her role as the head of her philanthropic organization, the Wells Foundation. Focused mainly on her charity work, Molly has sworn off any new relationships with men.

##### MediaInfo ######
General
Unique ID : 235788561784629658310121445008889461754 (0xB16339A4A4975F7F81A834EBD5F1BBFA)
Complete name : Loot.S02E08.Grace.2160p.Apple.TV+.WEB-DL.DDP.5.1.Atmos.HDR10+.H.265-BlackTV.mkv
Duration : 26 min 25 s
Overall bit rate : 25.0 Mb/s

Video
ID : 1
Format : HEVC
Format/Info : High Efficiency Video Coding
Format profile : Main 10@L5@High
HDR format : SMPTE ST 2094 App 4, Version 1, HDR10+ Profile B compatible
Codec ID : V_MPEGH/ISO/HEVC
Duration : 26 min 25 s
Bit rate : 24.2 Mb/s
Width : 3 840 pixels
Height : 1 920 pixels
Display aspect ratio : 2.000
Frame rate mode : Constant
Frame rate : 23.976 (23976/1000) FPS
Color space : YUV
Chroma subsampling : 4:2:0 (Type 2)
Bit depth : 10 bits
Bits/(Pixel*Frame) : 0.137
Stream size : 4.46 GiB (97%)
Language : English
Default : Yes
Forced : No
Color range : Limited
Color primaries : BT.2020
Transfer characteristics : PQ
Matrix coefficients : BT.2020 non-constant
Mastering display color primaries : Display P3
Mastering display luminance : min: 0.0050 cd/m2, max: 1000 cd/m2
Maximum Content Light Level : 243 cd/m2
Maximum Frame-Average Light Level : 91 cd/m2

Audio
ID : 2
Format : E-AC-3 JOC
Format/Info : Enhanced AC-3 with Joint Object Coding
Commercial name : Dolby Digital Plus with Dolby Atmos
Codec ID : A_EAC3
Duration : 26 min 25 s
Bit rate mode : Constant
Bit rate : 768 kb/s
Channel(s) : 6 channels
Channel layout : L R C LFE Ls Rs
Sampling rate : 48.0 kHz
Frame rate : 31.250 FPS (1536 SPF)
Compression mode : Lossy
Stream size : 145 MiB (3%)
Language : English
Service kind : Complete Main
Default : Yes
Forced : No
Complexity index : 16
Number of dynamic objects : 15
Bed channel count : 1 channel
Bed channel configuration : LFE

Text #1
ID : 3
Format : UTF-8
Codec ID : S_TEXT/UTF8
Codec ID/Info : UTF-8 Plain Text
Duration : 25 min 11 s
Bit rate : 94 b/s
Frame rate : 0.304 FPS
Count of elements : 459
Stream size : 17.5 KiB (0%)
Language : English
Default : No
Forced : No

Text #2
ID : 4
Format : UTF-8
Codec ID : S_TEXT/UTF8
Codec ID/Info : UTF-8 Plain Text
Duration : 26 min 6 s
Bit rate : 81 b/s
Frame rate : 0.298 FPS
Count of elements : 467
Stream size : 15.5 KiB (0%)
Title : Simplified
Language : Chinese
Default : No
Forced : No

Text #3
ID : 5
Format : UTF-8
Codec ID : S_TEXT/UTF8
Codec ID/Info : UTF-8 Plain Text
Duration : 26 min 6 s
Bit rate : 88 b/s
Frame rate : 0.299 FPS
Count of elements : 468
Stream size : 16.9 KiB (0%)
Title : Traditional
Language : Chinese
Default : No
Forced : No

Text #4
ID : 6
Format : UTF-8
Codec ID : S_TEXT/UTF8
Codec ID/Info : UTF-8 Plain Text
Duration : 26 min 6 s
Bit rate : 77 b/s
Frame rate : 0.299 FPS
Count of elements : 468
Stream size : 14.8 KiB (0%)
Title : Traditional
Language : Chinese
Default : No
Forced : No

Text #5
ID : 7
Format : UTF-8
Codec ID : S_TEXT/UTF8
Codec ID/Info : UTF-8 Plain Text
Duration : 26 min 6 s
Bit rate : 132 b/s
Frame rate : 0.298 FPS
Count of elements : 467
Stream size : 25.4 KiB (0%)
Language : Arabic
Default : No
Forced : No

Text #6
ID : 8
Format : UTF-8
Codec ID : S_TEXT/UTF8
Codec ID/Info : UTF-8 Plain Text
Duration : 26 min 6 s
Bit rate : 124 b/s
Frame rate : 0.217 FPS
Count of elements : 340
Stream size : 23.9 KiB (0%)
Language : Bulgarian
Default : No
Forced : No

Text #7
ID : 9
Format : UTF-8
Codec ID : S_TEXT/UTF8
Codec ID/Info : UTF-8 Plain Text
Duration : 26 min 6 s
Bit rate : 78 b/s
Frame rate : 0.281 FPS
Count of elements : 440
Stream size : 15.0 KiB (0%)
Language : Czech
Default : No
Forced : No

Text #8
ID : 10
Format : UTF-8
Codec ID : S_TEXT/UTF8
Codec ID/Info : UTF-8 Plain Text
Duration : 26 min 6 s
Bit rate : 79 b/s
Frame rate : 0.237 FPS
Count of elements : 371
Stream size : 15.1 KiB (0%)
Language : Danish
Default : No
Forced : No

Text #9
ID : 11
Format : UTF-8
Codec ID : S_TEXT/UTF8
Codec ID/Info : UTF-8 Plain Text
Duration : 26 min 3 s
Bit rate : 79 b/s
Frame rate : 0.248 FPS
Count of elements : 387
Stream size : 15.2 KiB (0%)
Language : German
Default : No
Forced : No

Text #10
ID : 12
Format : UTF-8
Codec ID : S_TEXT/UTF8
Codec ID/Info : UTF-8 Plain Text
Duration : 26 min 6 s
Bit rate : 142 b/s
Frame rate : 0.274 FPS
Count of elements : 429
Stream size : 27.2 KiB (0%)
Language : Greek
Default : No
Forced : No

Text #11
ID : 13
Format : UTF-8
Codec ID : S_TEXT/UTF8
Codec ID/Info : UTF-8 Plain Text
Duration : 26 min 6 s
Bit rate : 88 b/s
Frame rate : 0.299 FPS
Count of elements : 469
Stream size : 17.0 KiB (0%)
Title : Latin America
Language : Spanish
Default : No
Forced : No

Text #12
ID : 14
Format : UTF-8
Codec ID : S_TEXT/UTF8
Codec ID/Info : UTF-8 Plain Text
Duration : 26 min 6 s
Bit rate : 91 b/s
Frame rate : 0.299 FPS
Count of elements : 468
Stream size : 17.5 KiB (0%)
Language : Spanish
Default : No
Forced : No

Text #13
ID : 15
Format : UTF-8
Codec ID : S_TEXT/UTF8
Codec ID/Info : UTF-8 Plain Text
Duration : 26 min 6 s
Bit rate : 84 b/s
Frame rate : 0.268 FPS
Count of elements : 419
Stream size : 16.1 KiB (0%)
Language : Estonian
Default : No
Forced : No

Text #14
ID : 16
Format : UTF-8
Codec ID : S_TEXT/UTF8
Codec ID/Info : UTF-8 Plain Text
Duration : 26 min 6 s
Bit rate : 84 b/s
Frame rate : 0.268 FPS
Count of elements : 419
Stream size : 16.1 KiB (0%)
Language : Finnish
Default : No
Forced : No

Text #15
ID : 17
Format : UTF-8
Codec ID : S_TEXT/UTF8
Codec ID/Info : UTF-8 Plain Text
Duration : 25 min 33 s
Bit rate : 79 b/s
Frame rate : 0.282 FPS
Count of elements : 433
Stream size : 14.9 KiB (0%)
Title : Canada
Language : French
Default : No
Forced : No

Text #16
ID : 18
Format : UTF-8
Codec ID : S_TEXT/UTF8
Codec ID/Info : UTF-8 Plain Text
Duration : 25 min 33 s
Bit rate : 79 b/s
Frame rate : 0.282 FPS
Count of elements : 432
Stream size : 14.9 KiB (0%)
Language : French
Default : No
Forced : No

Text #17
ID : 19
Format : UTF-8
Codec ID : S_TEXT/UTF8
Codec ID/Info : UTF-8 Plain Text
Duration : 26 min 6 s
Bit rate : 125 b/s
Frame rate : 0.298 FPS
Count of elements : 467
Stream size : 23.9 KiB (0%)
Language : Hebrew
Default : No
Forced : No

Text #18
ID : 20
Format : UTF-8
Codec ID : S_TEXT/UTF8
Codec ID/Info : UTF-8 Plain Text
Duration : 26 min 6 s
Bit rate : 256 b/s
Frame rate : 0.299 FPS
Count of elements : 468
Stream size : 49.0 KiB (0%)
Language : Hindi
Default : No
Forced : No

Text #19
ID : 21
Format : UTF-8
Codec ID : S_TEXT/UTF8
Codec ID/Info : UTF-8 Plain Text
Duration : 26 min 6 s
Bit rate : 92 b/s
Frame rate : 0.299 FPS
Count of elements : 468
Stream size : 17.6 KiB (0%)
Language : Hungarian
Default : No
Forced : No

Text #20
ID : 22
Format : UTF-8
Codec ID : S_TEXT/UTF8
Codec ID/Info : UTF-8 Plain Text
Duration : 26 min 6 s
Bit rate : 93 b/s
Frame rate : 0.298 FPS
Count of elements : 467
Stream size : 17.8 KiB (0%)
Language : Indonesian
Default : No
Forced : No

Text #21
ID : 23
Format : UTF-8
Codec ID : S_TEXT/UTF8
Codec ID/Info : UTF-8 Plain Text
Duration : 26 min 4 s
Bit rate : 89 b/s
Frame rate : 0.308 FPS
Count of elements : 482
Stream size : 17.2 KiB (0%)
Language : Italian
Default : No
Forced : No

Text #22
ID : 24
Format : UTF-8
Codec ID : S_TEXT/UTF8
Codec ID/Info : UTF-8 Plain Text
Duration : 26 min 12 s
Bit rate : 76 b/s
Frame rate : 0.310 FPS
Count of elements : 487
Stream size : 14.8 KiB (0%)
Language : Japanese
Default : No
Forced : No

Text #23
ID : 25
Format : UTF-8
Codec ID : S_TEXT/UTF8
Codec ID/Info : UTF-8 Plain Text
Duration : 26 min 6 s
Bit rate : 99 b/s
Frame rate : 0.299 FPS
Count of elements : 468
Stream size : 19.1 KiB (0%)
Language : Korean
Default : No
Forced : No

Text #24
ID : 26
Format : UTF-8
Codec ID : S_TEXT/UTF8
Codec ID/Info : UTF-8 Plain Text
Duration : 26 min 6 s
Bit rate : 93 b/s
Frame rate : 0.298 FPS
Count of elements : 466
Stream size : 17.8 KiB (0%)
Language : Lithuanian
Default : No
Forced : No

Text #25
ID : 27
Format : UTF-8
Codec ID : S_TEXT/UTF8
Codec ID/Info : UTF-8 Plain Text
Duration : 26 min 6 s
Bit rate : 91 b/s
Frame rate : 0.294 FPS
Count of elements : 460
Stream size : 17.5 KiB (0%)
Language : Latvian
Default : No
Forced : No

Text #26
ID : 28
Format : UTF-8
Codec ID : S_TEXT/UTF8
Codec ID/Info : UTF-8 Plain Text
Duration : 26 min 6 s
Bit rate : 84 b/s
Frame rate : 0.297 FPS
Count of elements : 465
Stream size : 16.2 KiB (0%)
Language : Malay
Default : No
Forced : No

Text #27
ID : 29
Format : UTF-8
Codec ID : S_TEXT/UTF8
Codec ID/Info : UTF-8 Plain Text
Duration : 26 min 6 s
Bit rate : 79 b/s
Frame rate : 0.218 FPS
Count of elements : 342
Stream size : 15.1 KiB (0%)
Language : Dutch
Default : No
Forced : No

Text #28
ID : 30
Format : UTF-8
Codec ID : S_TEXT/UTF8
Codec ID/Info : UTF-8 Plain Text
Duration : 26 min 6 s
Bit rate : 83 b/s
Frame rate : 0.239 FPS
Count of elements : 375
Stream size : 15.9 KiB (0%)
Language : Norwegian
Default : No
Forced : No

Text #29
ID : 31
Format : UTF-8
Codec ID : S_TEXT/UTF8
Codec ID/Info : UTF-8 Plain Text
Duration : 26 min 6 s
Bit rate : 87 b/s
Frame rate : 0.298 FPS
Count of elements : 467
Stream size : 16.7 KiB (0%)
Language : Polish
Default : No
Forced : No

Text #30
ID : 32
Format : UTF-8
Codec ID : S_TEXT/UTF8
Codec ID/Info : UTF-8 Plain Text
Duration : 26 min 6 s
Bit rate : 82 b/s
Frame rate : 0.292 FPS
Count of elements : 458
Stream size : 15.7 KiB (0%)
Language : Portuguese
Default : No
Forced : No

Text #31
ID : 33
Format : UTF-8
Codec ID : S_TEXT/UTF8
Codec ID/Info : UTF-8 Plain Text
Duration : 26 min 6 s
Bit rate : 84 b/s
Frame rate : 0.289 FPS
Count of elements : 452
Stream size : 16.1 KiB (0%)
Title : Brazil
Language : Portuguese
Default : No
Forced : No

Text #32
ID : 34
Format : UTF-8
Codec ID : S_TEXT/UTF8
Codec ID/Info : UTF-8 Plain Text
Duration : 26 min 6 s
Bit rate : 129 b/s
Frame rate : 0.286 FPS
Count of elements : 448
Stream size : 24.9 KiB (0%)
Language : Russian
Default : No
Forced : No

Text #33
ID : 35
Format : UTF-8
Codec ID : S_TEXT/UTF8
Codec ID/Info : UTF-8 Plain Text
Duration : 26 min 6 s
Bit rate : 85 b/s
Frame rate : 0.297 FPS
Count of elements : 465
Stream size : 16.4 KiB (0%)
Language : Slovak
Default : No
Forced : No

Text #34
ID : 36
Format : UTF-8
Codec ID : S_TEXT/UTF8
Codec ID/Info : UTF-8 Plain Text
Duration : 26 min 6 s
Bit rate : 69 b/s
Frame rate : 0.291 FPS
Count of elements : 456
Stream size : 13.2 KiB (0%)
Language : Slovenian
Default : No
Forced : No

Text #35
ID : 37
Format : UTF-8
Codec ID : S_TEXT/UTF8
Codec ID/Info : UTF-8 Plain Text
Duration : 26 min 6 s
Bit rate : 80 b/s
Frame rate : 0.250 FPS
Count of elements : 391
Stream size : 15.4 KiB (0%)
Language : Swedish
Default : No
Forced : No

Text #36
ID : 38
Format : UTF-8
Codec ID : S_TEXT/UTF8
Codec ID/Info : UTF-8 Plain Text
Duration : 26 min 6 s
Bit rate : 297 b/s
Frame rate : 0.298 FPS
Count of elements : 467
Stream size : 56.9 KiB (0%)
Language : Tamil
Default : No
Forced : No

Text #37
ID : 39
Format : UTF-8
Codec ID : S_TEXT/UTF8
Codec ID/Info : UTF-8 Plain Text
Duration : 26 min 6 s
Bit rate : 279 b/s
Frame rate : 0.298 FPS
Count of elements : 467
Stream size : 53.4 KiB (0%)
Language : Telugu
Default : No
Forced : No

Text #38
ID : 40
Format : UTF-8
Codec ID : S_TEXT/UTF8
Codec ID/Info : UTF-8 Plain Text
Duration : 26 min 6 s
Bit rate : 218 b/s
Frame rate : 0.298 FPS
Count of elements : 467
Stream size : 41.9 KiB (0%)
Language : Thai
Default : No
Forced : No

Text #39
ID : 41
Format : UTF-8
Codec ID : S_TEXT/UTF8
Codec ID/Info : UTF-8 Plain Text
Duration : 26 min 6 s
Bit rate : 86 b/s
Frame rate : 0.281 FPS
Count of elements : 440
Stream size : 16.5 KiB (0%)
Language : Turkish
Default : No
Forced : No

Text #40
ID : 42
Format : UTF-8
Codec ID : S_TEXT/UTF8
Codec ID/Info : UTF-8 Plain Text
Duration : 26 min 6 s
Bit rate : 131 b/s
Frame rate : 0.299 FPS
Count of elements : 468
Stream size : 25.1 KiB (0%)
Language : Ukrainian
Default : No
Forced : No

Text #41
ID : 43
Format : UTF-8
Codec ID : S_TEXT/UTF8
Codec ID/Info : UTF-8 Plain Text
Duration : 26 min 6 s
Bit rate : 116 b/s
Frame rate : 0.299 FPS
Count of elements : 468
Stream size : 22.3 KiB (0%)
Language : Vietnamese
Default : No
Forced : No


部分资源为软字幕,移动端推荐播放器:MxPlayer,nPlayer,infuse ,其他播放器请自行尝试。

部分资源为软字幕,电脑端推荐播放器:PotPlayer,完美解码,KMPLAYER,其他播放器请自行尝试。

下载端推荐纯BT下载软件:qBittorrent,Bitcomet,uTorrent ,其他下载软件请自行尝试。不支持吸血迅雷。

上传的附件:
最新回复 (0)