2024 韩国 爱情 WEB-1080P 背着善在跑吧[第11-12集][无字片源].Lovely.Runner.S01.1080p.TVING.WEB-DL.AAC2.0.H.264-BlackTV 4.56GB

Katt2092T 2024-05-15 23:29 1568


完整标题:背着善在跑吧[第11-12集][无字片源].Lovely.Runner.S01.1080p.TVING.WEB-DL.AAC2.0.H.264-BlackTV 4.56GB




◎标  题 背着善在跑吧
◎译  名 背着善宰跑 / Loverly Runner
◎片  名 선재 업고 튀어
◎年  代 2024
◎产  地 韩国
◎类  别 爱情 / 奇幻
◎语  言 韩语
◎IMDb链接 https://www.imdb.com/title//
◎豆瓣链接 https://movie.douban.com/subject/36486154/
◎导  演 尹钟浩 Yoon Jong-Ho
      金泰烨 Tae-yeob Kim
◎编  剧 李时恩 Lee Shi Eun
◎演  员 边佑锡 Byeon Woo-seok
      金惠奫 Hye-yoon Kim
      宋建熙 Geon-hee Song
      李承協 Seung Hyub Lee

◎简  介
    讲述为了拯救悲剧结束人生的顶级明星,他的热血粉丝逆转时间回到2008年的故事。灿烂时期,重新相遇的两位年轻人克服命运的奇幻爱情喜剧。

##### MediaInfo ######
General
Unique ID : 235365882338218692071307524243330883442 (0xB111D1EFFDD3934A331A4724A2CADF72)
Complete name : Lovely.Runner.S01E11.1080p.TVING.WEB-DL.AAC2.0.H.264-BlackTV.mkv
Duration : 1 h 4 min
Overall bit rate mode : Variable
Overall bit rate : 5 030 kb/s

Video
ID : 1
Format : AVC
Format/Info : Advanced Video Codec
Format profile : High@L4
Format settings : CABAC / 2 Ref Frames
Format settings, CABAC : Yes
Format settings, Reference frames : 2 frames
Codec ID : V_MPEG4/ISO/AVC
Duration : 1 h 4 min
Bit rate mode : Variable
Bit rate : 4 899 kb/s
Maximum bit rate : 9 000 kb/s
Width : 1 920 pixels
Height : 1 080 pixels
Display aspect ratio : 16:9
Frame rate mode : Constant
Frame rate : 29.970 (30000/1001) FPS
Color space : YUV
Chroma subsampling : 4:2:0
Bit depth : 8 bits
Scan type : Progressive
Bits/(Pixel*Frame) : 0.079
Stream size : 2.19 GiB (97%)
Language : Korean
Default : Yes
Forced : No

Audio
ID : 2
Format : AAC LC
Format/Info : Advanced Audio Codec Low Complexity
Codec ID : A_AAC-2
Duration : 1 h 4 min
Bit rate : 128 kb/s
Channel(s) : 2 channels
Channel layout : L R
Sampling rate : 48.0 kHz
Frame rate : 46.875 FPS (1024 SPF)
Compression mode : Lossy
Stream size : 58.7 MiB (3%)
Default : Yes
Forced : No


部分资源为软字幕,移动端推荐播放器:MxPlayer,nPlayer,infuse ,其他播放器请自行尝试。

部分资源为软字幕,电脑端推荐播放器:PotPlayer,完美解码,KMPLAYER,其他播放器请自行尝试。

下载端推荐纯BT下载软件:qBittorrent,Bitcomet,uTorrent ,其他下载软件请自行尝试。不支持吸血迅雷。

上传的附件:
最新回复 (0)