2024 韩国 爱情 WEB-1080P 背着善在跑吧[第11-12集][简繁英字幕].Lovely.Runner.S01.1080p.Viu.WEB-DL.AAC2.0.H.264-BlackTV 1.92GB

MAY20919R 2024-05-15 23:29 2687


完整标题:背着善在跑吧[第11-12集][简繁英字幕].Lovely.Runner.S01.1080p.Viu.WEB-DL.AAC2.0.H.264-BlackTV 1.92GB




◎标  题 背着善在跑吧
◎译  名 背着善宰跑 / Loverly Runner
◎片  名 선재 업고 튀어
◎年  代 2024
◎产  地 韩国
◎类  别 爱情 / 奇幻
◎语  言 韩语
◎IMDb链接 https://www.imdb.com/title//
◎豆瓣链接 https://movie.douban.com/subject/36486154/
◎导  演 尹钟浩 Yoon Jong-Ho
      金泰烨 Tae-yeob Kim
◎编  剧 李时恩 Lee Shi Eun
◎演  员 边佑锡 Byeon Woo-seok
      金惠奫 Hye-yoon Kim
      宋建熙 Geon-hee Song
      李承協 Seung Hyub Lee

◎简  介
    讲述为了拯救悲剧结束人生的顶级明星,他的热血粉丝逆转时间回到2008年的故事。灿烂时期,重新相遇的两位年轻人克服命运的奇幻爱情喜剧。

##### MediaInfo ######
General
Unique ID : 195431043184026795097064115417450959186 (0x9306A65A26A87D07F2FB09768B8E5152)
Complete name : Lovely.Runner.S01E11.1080p.Viu.WEB-DL.AAC2.0.H.264-BlackTV.mkv
Duration : 1 h 3 min
Overall bit rate mode : Variable
Overall bit rate : 2 063 kb/s

Video
ID : 1
Format : AVC
Format/Info : Advanced Video Codec
Format profile : High@L4.1
Format settings : CABAC / 4 Ref Frames
Format settings, CABAC : Yes
Format settings, Reference frames : 4 frames
Codec ID : V_MPEG4/ISO/AVC
Duration : 1 h 3 min
Bit rate mode : Variable
Bit rate : 1 964 kb/s
Maximum bit rate : 4 500 kb/s
Width : 1 920 pixels
Height : 1 080 pixels
Display aspect ratio : 16:9
Frame rate mode : Constant
Frame rate : 29.970 (30000/1001) FPS
Original frame rate : 29.970 (29970/1000) FPS
Color space : YUV
Chroma subsampling : 4:2:0
Bit depth : 8 bits
Scan type : Progressive
Bits/(Pixel*Frame) : 0.032
Stream size : 897 MiB (95%)
Writing library : VOLO1.4.1
Default : Yes
Forced : No

Audio
ID : 2
Format : AAC LC
Format/Info : Advanced Audio Codec Low Complexity
Codec ID : A_AAC-2
Duration : 1 h 3 min
Bit rate : 96.0 kb/s
Channel(s) : 2 channels
Channel layout : L R
Sampling rate : 48.0 kHz
Frame rate : 46.875 FPS (1024 SPF)
Compression mode : Lossy
Delay relative to video : -42 ms
Stream size : 43.8 MiB (5%)
Default : Yes
Forced : No

Text #1
ID : 3
Format : UTF-8
Codec ID : S_TEXT/UTF8
Codec ID/Info : UTF-8 Plain Text
Duration : 1 h 3 min
Bit rate : 64 b/s
Frame rate : 0.291 FPS
Count of elements : 1112
Stream size : 30.1 KiB (0%)
Title : English
Language : English
Default : No
Forced : No

Text #2
ID : 4
Format : UTF-8
Codec ID : S_TEXT/UTF8
Codec ID/Info : UTF-8 Plain Text
Duration : 1 h 3 min
Bit rate : 57 b/s
Frame rate : 0.312 FPS
Count of elements : 1185
Stream size : 26.6 KiB (0%)
Title : Simplified
Language : Chinese
Default : No
Forced : No

Text #3
ID : 5
Format : UTF-8
Codec ID : S_TEXT/UTF8
Codec ID/Info : UTF-8 Plain Text
Duration : 1 h 3 min
Bit rate : 57 b/s
Frame rate : 0.312 FPS
Count of elements : 1185
Stream size : 26.6 KiB (0%)
Title : Traditional
Language : Chinese
Default : Yes
Forced : No


部分资源为软字幕,移动端推荐播放器:MxPlayer,nPlayer,infuse ,其他播放器请自行尝试。

部分资源为软字幕,电脑端推荐播放器:PotPlayer,完美解码,KMPLAYER,其他播放器请自行尝试。

下载端推荐纯BT下载软件:qBittorrent,Bitcomet,uTorrent ,其他下载软件请自行尝试。不支持吸血迅雷。

上传的附件:
最新回复 (0)