2022 日本 剧情 WEB-1080P 大叔支持我的恋爱(脑内)[全8集][中文字幕].1080p.CATCHPLAY.WEB-DL.AAC2.0.H.264-BlackTV 5.74GB

MAY20919R 2024-05-15 23:30 1191


完整标题:大叔支持我的恋爱(脑内)[全8集][中文字幕].1080p.CATCHPLAY.WEB-DL.AAC2.0.H.264-BlackTV 5.74GB




◎标  题 大叔支持我的恋爱(脑内)
◎片  名 おじさんが私の恋を応援しています(脳内)
◎年  代 2022
◎产  地 日本
◎类  别 剧情 / 爱情
◎语  言 日语
◎IMDb链接 https://www.imdb.com/title//
◎豆瓣链接 https://movie.douban.com/subject/35708613/
◎演  员 北乃绮 Kie Kitano
      山口香绪里 Kaori Yamaguti
      柳美稀 Miki Yanagi
      田中日奈子 Hinako Tanaka
      田名部生来 Miku Tanabe
      汤田幸希 Kouki Yuda
      笹森裕贵 Hiroki Sasamori
      小山萌子 Moeko Koyama
      大桥彰 Ohashi Akira
      花柳希 Nozomi Hanayagi

◎简  介
    本作は井野ジュンの同名マンガを原作とした「OL×おじさん×イケメン」によるトライアングルラブコメディ。引っ込み思案のOL・宮下まつりは取引先のイケメン営業マン・樹に思いを寄せているが、気持ちを伝えられないでいた。そんなある日、まつりは交通事故に遭遇し、営業一筋30年のおじさんの意識が、なぜか彼女の脳内に飛び込んでくる。こうしてOLとおじさんの不思議な“脳内同居生活”がスタート。まつりは困惑するが、おじさんは脳内から彼女の仕事や恋愛にエールを送る。

##### MediaInfo ######
General
Unique ID : 256967199998573797318765036051322286155 (0xC15215200C38A55B743A699BD2C6B04B)
Complete name : Ojisan.is.Cheering.for.My.Love.In.My.Brain.S01E01.1080p.CATCHPLAY.WEB-DL.AAC2.0.H.264-BlackTV.mkv
Duration : 24 min 10 s
Overall bit rate mode : Variable
Overall bit rate : 4 170 kb/s

Video
ID : 1
Format : AVC
Format/Info : Advanced Video Codec
Format profile : Main@L4.1
Format settings : CABAC / 4 Ref Frames
Format settings, CABAC : Yes
Format settings, Reference frames : 4 frames
Format settings, GOP : M=3, N=48
Codec ID : V_MPEG4/ISO/AVC
Duration : 24 min 10 s
Bit rate mode : Variable
Bit rate : 4 038 kb/s
Maximum bit rate : 6 000 kb/s
Width : 1 920 pixels
Height : 1 080 pixels
Display aspect ratio : 16:9
Frame rate mode : Constant
Frame rate : 29.970 (29970/1000) FPS
Original frame rate : 29.970 (30000/1001) FPS
Color space : YUV
Chroma subsampling : 4:2:0
Bit depth : 8 bits
Scan type : Progressive
Bits/(Pixel*Frame) : 0.065
Stream size : 698 MiB (97%)
Language : Japanese
Default : Yes
Forced : No

Audio
ID : 2
Format : AAC LC
Format/Info : Advanced Audio Codec Low Complexity
Codec ID : A_AAC-2
Duration : 24 min 10 s
Bit rate : 129 kb/s
Channel(s) : 2 channels
Channel layout : L R
Sampling rate : 48.0 kHz
Frame rate : 46.875 FPS (1024 SPF)
Compression mode : Lossy
Stream size : 22.2 MiB (3%)
Language : Japanese
Default : Yes
Forced : No


部分资源为软字幕,移动端推荐播放器:MxPlayer,nPlayer,infuse ,其他播放器请自行尝试。

部分资源为软字幕,电脑端推荐播放器:PotPlayer,完美解码,KMPLAYER,其他播放器请自行尝试。

下载端推荐纯BT下载软件:qBittorrent,Bitcomet,uTorrent ,其他下载软件请自行尝试。不支持吸血迅雷。

上传的附件:
最新回复 (0)