2024 英国 剧情 WEB-4K 我们的生物世界[全4集][简繁英字幕].Our.Living.World.S01.2024.2160p.NF.WEB-DL.DDP5.1.Atmos.H.265-LelveTV 17.13GB

Katt2092T 2024-05-15 23:30 1360


完整标题:我们的生物世界[全4集][简繁英字幕].Our.Living.World.S01.2024.2160p.NF.WEB-DL.DDP5.1.Atmos.H.265-LelveTV 17.13GB




◎标  题 我们的生物世界
◎译  名 我们生活的世界
◎片  名 Our Living World
◎年  代 2024
◎产  地 英国
◎类  别 纪录片
◎语  言 英语
◎IMDb评分 7.8/10 (495人评价)
◎IMDb链接 https://www.imdb.com/title/tt23181418/
◎豆瓣评分 8.2/10 (183人评价)
◎豆瓣链接 https://movie.douban.com/subject/36148959/
◎演  员 凯特·布兰切特 Cate Blanchett

◎简  介
    探索大自然的奥妙之处,赞叹生物密不可分的关系。   该纪录片系列为《全球绝美国家公园》艾美奖获奖班底最新力作,为你揭晓一个神秘的联系网络,这不仅聚集我们众人,也维系了地球上最神奇的现象:生命。团队踏遍全球,并请到奥斯卡影后凯特·布兰切特献声旁白,讲解大大小小的非凡生物和生态系统如何协调运作,让我们的生物世界得以恢复及延续。

##### MediaInfo ######
General
Unique ID : 69386347976462776415966201974257715265 (0x34335314652402FD7991EE908F058841)
Complete name : Our.Living.World.S01E01.2024.2160p.NF.WEB-DL.DDP5.1.Atmos.H.265-LelveTV.mkv
Duration : 49 min 39 s
Overall bit rate : 12.2 Mb/s

Video
ID : 1
Format : HEVC
Format/Info : High Efficiency Video Coding
Format profile : Main 10@L5@Main
Codec ID : V_MPEGH/ISO/HEVC
Duration : 49 min 39 s
Bit rate : 11.4 Mb/s
Width : 3 840 pixels
Height : 2 160 pixels
Display aspect ratio : 16:9
Frame rate mode : Constant
Frame rate : 25.000 FPS
Color space : YUV
Chroma subsampling : 4:2:0
Bit depth : 10 bits
Bits/(Pixel*Frame) : 0.055
Stream size : 3.95 GiB (94%)
Default : Yes
Forced : No
Color range : Limited
Color primaries : BT.709
Transfer characteristics : BT.709
Matrix coefficients : BT.709

Audio
ID : 2
Format : E-AC-3 JOC
Format/Info : Enhanced AC-3 with Joint Object Coding
Commercial name : Dolby Digital Plus with Dolby Atmos
Codec ID : A_EAC3
Duration : 49 min 39 s
Bit rate mode : Constant
Bit rate : 768 kb/s
Channel(s) : 6 channels
Channel layout : L R C LFE Ls Rs
Sampling rate : 48.0 kHz
Frame rate : 31.250 FPS (1536 SPF)
Compression mode : Lossy
Stream size : 273 MiB (6%)
Title : English [Dolby Digital Plus with Dolby Atmos 5.1]
Language : English
Service kind : Complete Main
Default : Yes
Forced : No
Complexity index : 16
Number of dynamic objects : 15
Bed channel count : 1 channel
Bed channel configuration : LFE

Text #1
ID : 3
Format : UTF-8
Codec ID : S_TEXT/UTF8
Codec ID/Info : UTF-8 Plain Text
Duration : 46 min 5 s
Bit rate : 52 b/s
Frame rate : 0.180 FPS
Count of elements : 499
Stream size : 17.9 KiB (0%)
Title : English [SDH]
Language : English
Default : No
Forced : No

Text #2
ID : 4
Format : UTF-8
Codec ID : S_TEXT/UTF8
Codec ID/Info : UTF-8 Plain Text
Duration : 48 min 0 s
Bit rate : 43 b/s
Frame rate : 0.135 FPS
Count of elements : 389
Stream size : 15.3 KiB (0%)
Title : 中文(简体)
Language : Chinese
Default : Yes
Forced : No

Text #3
ID : 5
Format : UTF-8
Codec ID : S_TEXT/UTF8
Codec ID/Info : UTF-8 Plain Text
Duration : 48 min 3 s
Bit rate : 37 b/s
Frame rate : 0.132 FPS
Count of elements : 382
Stream size : 13.1 KiB (0%)
Title : 中文 (繁體)
Language : Chinese
Default : No
Forced : No

Text #4
ID : 6
Format : UTF-8
Codec ID : S_TEXT/UTF8
Codec ID/Info : UTF-8 Plain Text
Duration : 48 min 0 s
Bit rate : 74 b/s
Frame rate : 0.132 FPS
Count of elements : 380
Stream size : 26.1 KiB (0%)
Title : ???????
Language : Arabic
Default : No
Forced : No

Text #5
ID : 7
Format : UTF-8
Codec ID : S_TEXT/UTF8
Codec ID/Info : UTF-8 Plain Text
Duration : 48 min 3 s
Bit rate : 42 b/s
Frame rate : 0.131 FPS
Count of elements : 379
Stream size : 15.0 KiB (0%)
Title : Català
Language : Catalan
Default : No
Forced : No

Text #6
ID : 8
Format : UTF-8
Codec ID : S_TEXT/UTF8
Codec ID/Info : UTF-8 Plain Text
Duration : 45 min 53 s
Bit rate : 49 b/s
Frame rate : 0.107 FPS
Count of elements : 295
Stream size : 16.6 KiB (0%)
Title : ?e?tina
Language : Czech
Default : No
Forced : No

Text #7
ID : 9
Format : UTF-8
Codec ID : S_TEXT/UTF8
Codec ID/Info : UTF-8 Plain Text
Duration : 48 min 3 s
Bit rate : 44 b/s
Frame rate : 0.129 FPS
Count of elements : 372
Stream size : 15.6 KiB (0%)
Title : Dansk
Language : Danish
Default : No
Forced : No

Text #8
ID : 10
Format : UTF-8
Codec ID : S_TEXT/UTF8
Codec ID/Info : UTF-8 Plain Text
Duration : 48 min 12 s
Bit rate : 44 b/s
Frame rate : 0.134 FPS
Count of elements : 387
Stream size : 15.7 KiB (0%)
Title : Deutsch
Language : German
Default : No
Forced : No

Text #9
ID : 11
Format : UTF-8
Codec ID : S_TEXT/UTF8
Codec ID/Info : UTF-8 Plain Text
Duration : 48 min 1 s
Bit rate : 80 b/s
Frame rate : 0.132 FPS
Count of elements : 380
Stream size : 28.3 KiB (0%)
Title : Ελληνικ?
Language : Greek
Default : No
Forced : No

Text #10
ID : 12
Format : UTF-8
Codec ID : S_TEXT/UTF8
Codec ID/Info : UTF-8 Plain Text
Duration : 45 min 57 s
Bit rate : 52 b/s
Frame rate : 0.146 FPS
Count of elements : 402
Stream size : 17.6 KiB (0%)
Title : Espa?ol
Language : Spanish
Default : No
Forced : No

Text #11
ID : 13
Format : UTF-8
Codec ID : S_TEXT/UTF8
Codec ID/Info : UTF-8 Plain Text
Duration : 48 min 3 s
Bit rate : 44 b/s
Frame rate : 0.128 FPS
Count of elements : 369
Stream size : 15.8 KiB (0%)
Title : Espa?ol (Espa?a)
Language : Spanish
Default : No
Forced : No

Text #12
ID : 14
Format : UTF-8
Codec ID : S_TEXT/UTF8
Codec ID/Info : UTF-8 Plain Text
Duration : 48 min 3 s
Bit rate : 42 b/s
Frame rate : 0.127 FPS
Count of elements : 367
Stream size : 14.8 KiB (0%)
Title : Euskara
Language : Basque
Default : No
Forced : No

Text #13
ID : 15
Format : UTF-8
Codec ID : S_TEXT/UTF8
Codec ID/Info : UTF-8 Plain Text
Duration : 48 min 1 s
Bit rate : 44 b/s
Frame rate : 0.122 FPS
Count of elements : 351
Stream size : 15.6 KiB (0%)
Title : Suomi
Language : Finnish
Default : No
Forced : No

Text #14
ID : 16
Format : UTF-8
Codec ID : S_TEXT/UTF8
Codec ID/Info : UTF-8 Plain Text
Duration : 48 min 3 s
Bit rate : 45 b/s
Frame rate : 0.130 FPS
Count of elements : 375
Stream size : 15.9 KiB (0%)
Title : Suomi (Israel)
Language : Finnish
Default : No
Forced : No

Text #15
ID : 17
Format : UTF-8
Codec ID : S_TEXT/UTF8
Codec ID/Info : UTF-8 Plain Text
Duration : 45 min 56 s
Bit rate : 57 b/s
Frame rate : 0.127 FPS
Count of elements : 350
Stream size : 19.4 KiB (0%)
Title : Fran?ais
Language : French
Default : No
Forced : No

Text #16
ID : 18
Format : UTF-8
Codec ID : S_TEXT/UTF8
Codec ID/Info : UTF-8 Plain Text
Duration : 48 min 3 s
Bit rate : 44 b/s
Frame rate : 0.131 FPS
Count of elements : 377
Stream size : 15.6 KiB (0%)
Title : Galego
Language : Galician
Default : No
Forced : No

Text #17
ID : 19
Format : UTF-8
Codec ID : S_TEXT/UTF8
Codec ID/Info : UTF-8 Plain Text
Duration : 48 min 3 s
Bit rate : 73 b/s
Frame rate : 0.132 FPS
Count of elements : 380
Stream size : 25.7 KiB (0%)
Title : ?????
Language : Hebrew
Default : No
Forced : No

Text #18
ID : 20
Format : UTF-8
Codec ID : S_TEXT/UTF8
Codec ID/Info : UTF-8 Plain Text
Duration : 48 min 3 s
Bit rate : 41 b/s
Frame rate : 0.134 FPS
Count of elements : 385
Stream size : 14.6 KiB (0%)
Title : Hrvatski
Language : Croatian
Default : No
Forced : No

Text #19
ID : 21
Format : UTF-8
Codec ID : S_TEXT/UTF8
Codec ID/Info : UTF-8 Plain Text
Duration : 48 min 3 s
Bit rate : 47 b/s
Frame rate : 0.128 FPS
Count of elements : 368
Stream size : 16.8 KiB (0%)
Title : Magyar
Language : Hungarian
Default : No
Forced : No

Text #20
ID : 22
Format : UTF-8
Codec ID : S_TEXT/UTF8
Codec ID/Info : UTF-8 Plain Text
Duration : 48 min 3 s
Bit rate : 46 b/s
Frame rate : 0.134 FPS
Count of elements : 385
Stream size : 16.5 KiB (0%)
Title : Bahasa Indonesia
Language : Indonesian
Default : No
Forced : No

Text #21
ID : 23
Format : UTF-8
Codec ID : S_TEXT/UTF8
Codec ID/Info : UTF-8 Plain Text
Duration : 45 min 54 s
Bit rate : 54 b/s
Frame rate : 0.125 FPS
Count of elements : 343
Stream size : 18.3 KiB (0%)
Title : Italiano
Language : Italian
Default : No
Forced : No

Text #22
ID : 24
Format : UTF-8
Codec ID : S_TEXT/UTF8
Codec ID/Info : UTF-8 Plain Text
Duration : 48 min 3 s
Bit rate : 50 b/s
Frame rate : 0.136 FPS
Count of elements : 392
Stream size : 17.6 KiB (0%)
Title : 日本語
Language : Japanese
Default : No
Forced : No

Text #23
ID : 25
Format : UTF-8
Codec ID : S_TEXT/UTF8
Codec ID/Info : UTF-8 Plain Text
Duration : 48 min 3 s
Bit rate : 60 b/s
Frame rate : 0.153 FPS
Count of elements : 442
Stream size : 21.3 KiB (0%)
Title : ???
Language : Korean
Default : No
Forced : No

Text #24
ID : 26
Format : UTF-8
Codec ID : S_TEXT/UTF8
Codec ID/Info : UTF-8 Plain Text
Duration : 48 min 3 s
Bit rate : 42 b/s
Frame rate : 0.129 FPS
Count of elements : 372
Stream size : 15.0 KiB (0%)
Title : Bahasa Malaysia
Language : Malay
Default : No
Forced : No

Text #25
ID : 27
Format : UTF-8
Codec ID : S_TEXT/UTF8
Codec ID/Info : UTF-8 Plain Text
Duration : 48 min 0 s
Bit rate : 44 b/s
Frame rate : 0.130 FPS
Count of elements : 375
Stream size : 15.7 KiB (0%)
Title : Norsk Bokm?l
Language : Norwegian Bokmal
Default : No
Forced : No

Text #26
ID : 28
Format : UTF-8
Codec ID : S_TEXT/UTF8
Codec ID/Info : UTF-8 Plain Text
Duration : 48 min 1 s
Bit rate : 47 b/s
Frame rate : 0.130 FPS
Count of elements : 374
Stream size : 16.6 KiB (0%)
Title : Nederlands
Language : Dutch
Default : No
Forced : No

Text #27
ID : 29
Format : UTF-8
Codec ID : S_TEXT/UTF8
Codec ID/Info : UTF-8 Plain Text
Duration : 48 min 3 s
Bit rate : 43 b/s
Frame rate : 0.140 FPS
Count of elements : 403
Stream size : 15.2 KiB (0%)
Title : Polski
Language : Polish
Default : No
Forced : No

Text #28
ID : 30
Format : UTF-8
Codec ID : S_TEXT/UTF8
Codec ID/Info : UTF-8 Plain Text
Duration : 48 min 3 s
Bit rate : 46 b/s
Frame rate : 0.136 FPS
Count of elements : 393
Stream size : 16.5 KiB (0%)
Title : Português
Language : Portuguese
Default : No
Forced : No

Text #29
ID : 31
Format : UTF-8
Codec ID : S_TEXT/UTF8
Codec ID/Info : UTF-8 Plain Text
Duration : 48 min 3 s
Bit rate : 44 b/s
Frame rate : 0.139 FPS
Count of elements : 401
Stream size : 15.7 KiB (0%)
Title : Português (Brasil)
Language : Portuguese
Default : No
Forced : No

Text #30
ID : 32
Format : UTF-8
Codec ID : S_TEXT/UTF8
Codec ID/Info : UTF-8 Plain Text
Duration : 45 min 55 s
Bit rate : 50 b/s
Frame rate : 0.122 FPS
Count of elements : 337
Stream size : 17.1 KiB (0%)
Title : Roman?
Language : Romanian
Default : No
Forced : No

Text #31
ID : 33
Format : UTF-8
Codec ID : S_TEXT/UTF8
Codec ID/Info : UTF-8 Plain Text
Duration : 48 min 3 s
Bit rate : 77 b/s
Frame rate : 0.131 FPS
Count of elements : 379
Stream size : 27.3 KiB (0%)
Title : Русский
Language : Russian
Default : No
Forced : No

Text #32
ID : 34
Format : UTF-8
Codec ID : S_TEXT/UTF8
Codec ID/Info : UTF-8 Plain Text
Duration : 48 min 0 s
Bit rate : 45 b/s
Frame rate : 0.132 FPS
Count of elements : 380
Stream size : 16.1 KiB (0%)
Title : Svenska
Language : Swedish
Default : No
Forced : No

Text #33
ID : 35
Format : UTF-8
Codec ID : S_TEXT/UTF8
Codec ID/Info : UTF-8 Plain Text
Duration : 48 min 3 s
Bit rate : 119 b/s
Frame rate : 0.132 FPS
Count of elements : 380
Stream size : 42.0 KiB (0%)
Title : ???
Language : Thai
Default : No
Forced : No

Text #34
ID : 36
Format : UTF-8
Codec ID : S_TEXT/UTF8
Codec ID/Info : UTF-8 Plain Text
Duration : 48 min 3 s
Bit rate : 47 b/s
Frame rate : 0.126 FPS
Count of elements : 362
Stream size : 16.8 KiB (0%)
Title : Türk?e
Language : Turkish
Default : No
Forced : No

Text #35
ID : 37
Format : UTF-8
Codec ID : S_TEXT/UTF8
Codec ID/Info : UTF-8 Plain Text
Duration : 48 min 3 s
Bit rate : 75 b/s
Frame rate : 0.129 FPS
Count of elements : 373
Stream size : 26.6 KiB (0%)
Title : Укра?нська
Language : Ukrainian
Default : No
Forced : No

Text #36
ID : 38
Format : UTF-8
Codec ID : S_TEXT/UTF8
Codec ID/Info : UTF-8 Plain Text
Duration : 48 min 3 s
Bit rate : 58 b/s
Frame rate : 0.132 FPS
Count of elements : 380
Stream size : 20.7 KiB (0%)
Title : Ti?ng Vi?t
Language : Vietnamese
Default : No
Forced : No

Menu
00:00:00.000 : en:Part 01
00:46:13.000 : en:Credits


部分资源为软字幕,移动端推荐播放器:MxPlayer,nPlayer,infuse ,其他播放器请自行尝试。

部分资源为软字幕,电脑端推荐播放器:PotPlayer,完美解码,KMPLAYER,其他播放器请自行尝试。

下载端推荐纯BT下载软件:qBittorrent,Bitcomet,uTorrent ,其他下载软件请自行尝试。不支持吸血迅雷。

上传的附件:
最新回复 (0)