2024 美国 剧情 WEB-1080P 野性王后[全7集][简繁英字幕].Queens.S01.2024.1080p.DSNP.WEB-DL.AAC2.0.H264-LelveTV 16.90GB

MAY20919R 2024-05-15 23:31 1602


完整标题:野性王后[全7集][简繁英字幕].Queens.S01.2024.1080p.DSNP.WEB-DL.AAC2.0.H264-LelveTV 16.90GB




◎标  题 野性王后
◎片  名 Queens
◎年  代 2024
◎产  地 美国
◎类  别 纪录片
◎语  言 英语
◎IMDb链接 https://www.imdb.com/title/tt29520438/
◎豆瓣链接 https://movie.douban.com/subject/36631684/
◎演  员 安吉拉·贝塞特 Angela Bassett

◎简  介
    聚焦于动物界中最具代表性的六个由强势雌性统治的世界。

##### MediaInfo ######
General
Unique ID : 88465085663541733546816981832778041361 (0x428DC178E97484936E1DF4BAC316C811)
Complete name : Queens.S01E01.2024.1080p.DSNP.WEB-DL.AAC2.0.H264-LelveTV.mkv
Duration : 48 min 28 s
Overall bit rate mode : Variable
Overall bit rate : 7 635 kb/s

Video
ID : 1
Format : AVC
Format/Info : Advanced Video Codec
Format profile : High@L4
Format settings : CABAC / 4 Ref Frames
Format settings, CABAC : Yes
Format settings, Reference frames : 4 frames
Codec ID : V_MPEG4/ISO/AVC
Duration : 48 min 28 s
Bit rate mode : Variable
Bit rate : 7 506 kb/s
Maximum bit rate : 12.7 Mb/s
Width : 1 920 pixels
Height : 1 080 pixels
Display aspect ratio : 16:9
Frame rate mode : Constant
Frame rate : 23.976 (24000/1001) FPS
Color space : YUV
Chroma subsampling : 4:2:0
Bit depth : 8 bits
Scan type : Progressive
Bits/(Pixel*Frame) : 0.151
Stream size : 2.54 GiB (98%)
Default : Yes
Forced : No
Color range : Limited
Color primaries : BT.709
Transfer characteristics : BT.709
Matrix coefficients : BT.709

Audio
ID : 2
Format : AAC LC
Format/Info : Advanced Audio Codec Low Complexity
Codec ID : A_AAC-2
Duration : 48 min 28 s
Bit rate : 125 kb/s
Channel(s) : 2 channels
Channel layout : L R
Sampling rate : 48.0 kHz
Frame rate : 46.875 FPS (1024 SPF)
Compression mode : Lossy
Stream size : 43.5 MiB (2%)
Title : English [AAC 2.0]
Language : English
Default : Yes
Forced : No

Text #1
ID : 3
Format : UTF-8
Codec ID : S_TEXT/UTF8
Codec ID/Info : UTF-8 Plain Text
Duration : 48 min 18 s
Bit rate : 39 b/s
Frame rate : 0.176 FPS
Count of elements : 511
Stream size : 14.1 KiB (0%)
Title : English [SDH]
Language : English
Default : No
Forced : No

Text #2
ID : 4
Format : UTF-8
Codec ID : S_TEXT/UTF8
Codec ID/Info : UTF-8 Plain Text
Duration : 48 min 19 s
Bit rate : 27 b/s
Frame rate : 0.106 FPS
Count of elements : 308
Stream size : 9.76 KiB (0%)
Title : 中文(简体)
Language : Chinese
Default : Yes
Forced : No

Text #3
ID : 5
Format : UTF-8
Codec ID : S_TEXT/UTF8
Codec ID/Info : UTF-8 Plain Text
Duration : 48 min 19 s
Bit rate : 27 b/s
Frame rate : 0.106 FPS
Count of elements : 308
Stream size : 9.76 KiB (0%)
Title : 中文 (繁體)
Language : Chinese
Default : No
Forced : No

Text #4
ID : 6
Format : UTF-8
Codec ID : S_TEXT/UTF8
Codec ID/Info : UTF-8 Plain Text
Duration : 48 min 19 s
Bit rate : 30 b/s
Frame rate : 0.097 FPS
Count of elements : 280
Stream size : 10.6 KiB (0%)
Title : Dansk
Language : Danish
Default : No
Forced : No

Text #5
ID : 7
Format : UTF-8
Codec ID : S_TEXT/UTF8
Codec ID/Info : UTF-8 Plain Text
Duration : 48 min 19 s
Bit rate : 60 b/s
Frame rate : 0.116 FPS
Count of elements : 335
Stream size : 21.3 KiB (0%)
Title : Ελληνικ?
Language : Greek
Default : No
Forced : No

Text #6
ID : 8
Format : UTF-8
Codec ID : S_TEXT/UTF8
Codec ID/Info : UTF-8 Plain Text
Duration : 47 min 51 s
Bit rate : 31 b/s
Frame rate : 0.129 FPS
Count of elements : 370
Stream size : 11.0 KiB (0%)
Title : Espa?ol (Latinoamérica)
Language : Spanish
Default : No
Forced : No

Text #7
ID : 9
Format : UTF-8
Codec ID : S_TEXT/UTF8
Codec ID/Info : UTF-8 Plain Text
Duration : 48 min 19 s
Bit rate : 32 b/s
Frame rate : 0.102 FPS
Count of elements : 295
Stream size : 11.6 KiB (0%)
Title : Espa?ol (Espa?a)
Language : Spanish
Default : No
Forced : No

Text #8
ID : 10
Format : UTF-8
Codec ID : S_TEXT/UTF8
Codec ID/Info : UTF-8 Plain Text
Duration : 48 min 19 s
Bit rate : 30 b/s
Frame rate : 0.096 FPS
Count of elements : 279
Stream size : 10.8 KiB (0%)
Title : Suomi
Language : Finnish
Default : No
Forced : No

Text #9
ID : 11
Format : UTF-8
Codec ID : S_TEXT/UTF8
Codec ID/Info : UTF-8 Plain Text
Duration : 48 min 19 s
Bit rate : 30 b/s
Frame rate : 0.097 FPS
Count of elements : 280
Stream size : 10.6 KiB (0%)
Title : Italiano
Language : Italian
Default : No
Forced : No

Text #10
ID : 12
Format : UTF-8
Codec ID : S_TEXT/UTF8
Codec ID/Info : UTF-8 Plain Text
Duration : 48 min 19 s
Bit rate : 33 b/s
Frame rate : 0.101 FPS
Count of elements : 293
Stream size : 11.8 KiB (0%)
Title : 日本語
Language : Japanese
Default : No
Forced : No

Text #11
ID : 13
Format : UTF-8
Codec ID : S_TEXT/UTF8
Codec ID/Info : UTF-8 Plain Text
Duration : 48 min 19 s
Bit rate : 39 b/s
Frame rate : 0.106 FPS
Count of elements : 308
Stream size : 14.1 KiB (0%)
Title : ???
Language : Korean
Default : No
Forced : No

Text #12
ID : 14
Format : UTF-8
Codec ID : S_TEXT/UTF8
Codec ID/Info : UTF-8 Plain Text
Duration : 48 min 19 s
Bit rate : 30 b/s
Frame rate : 0.098 FPS
Count of elements : 283
Stream size : 10.9 KiB (0%)
Title : Nederlands
Language : Dutch
Default : No
Forced : No

Text #13
ID : 15
Format : UTF-8
Codec ID : S_TEXT/UTF8
Codec ID/Info : UTF-8 Plain Text
Duration : 48 min 19 s
Bit rate : 29 b/s
Frame rate : 0.095 FPS
Count of elements : 274
Stream size : 10.4 KiB (0%)
Title : Norsk
Language : Norwegian
Default : No
Forced : No

Text #14
ID : 16
Format : UTF-8
Codec ID : S_TEXT/UTF8
Codec ID/Info : UTF-8 Plain Text
Duration : 47 min 51 s
Bit rate : 33 b/s
Frame rate : 0.132 FPS
Count of elements : 378
Stream size : 11.8 KiB (0%)
Title : Português (Brasil)
Language : Portuguese
Default : No
Forced : No

Text #15
ID : 17
Format : UTF-8
Codec ID : S_TEXT/UTF8
Codec ID/Info : UTF-8 Plain Text
Duration : 48 min 18 s
Bit rate : 32 b/s
Frame rate : 0.104 FPS
Count of elements : 302
Stream size : 11.4 KiB (0%)
Title : Português (Portugal)
Language : Portuguese
Default : No
Forced : No

Text #16
ID : 18
Format : UTF-8
Codec ID : S_TEXT/UTF8
Codec ID/Info : UTF-8 Plain Text
Duration : 48 min 19 s
Bit rate : 31 b/s
Frame rate : 0.098 FPS
Count of elements : 283
Stream size : 11.1 KiB (0%)
Title : Roman?
Language : Romanian
Default : No
Forced : No

Text #17
ID : 19
Format : UTF-8
Codec ID : S_TEXT/UTF8
Codec ID/Info : UTF-8 Plain Text
Duration : 48 min 19 s
Bit rate : 29 b/s
Frame rate : 0.097 FPS
Count of elements : 281
Stream size : 10.3 KiB (0%)
Title : Sloven?ina
Language : Slovak
Default : No
Forced : No

Text #18
ID : 20
Format : UTF-8
Codec ID : S_TEXT/UTF8
Codec ID/Info : UTF-8 Plain Text
Duration : 48 min 19 s
Bit rate : 30 b/s
Frame rate : 0.097 FPS
Count of elements : 281
Stream size : 10.9 KiB (0%)
Title : Svenska
Language : Swedish
Default : No
Forced : No

Menu
00:00:01.001 : en:Intro
00:00:58.350 : en:Scene 1
00:48:00.631 : en:Credits


部分资源为软字幕,移动端推荐播放器:MxPlayer,nPlayer,infuse ,其他播放器请自行尝试。

部分资源为软字幕,电脑端推荐播放器:PotPlayer,完美解码,KMPLAYER,其他播放器请自行尝试。

下载端推荐纯BT下载软件:qBittorrent,Bitcomet,uTorrent ,其他下载软件请自行尝试。不支持吸血迅雷。

上传的附件:
最新回复 (0)