2024 大陆 剧情 WEB-1080P 新生[第01-09集][国语音轨/简繁英字幕].Regeneration.S01.2024.1080p.NF.WEB-DL.DDP2.0.H264-LelveTV 15.28GB

Katt2092T 2024-05-15 23:31 1570


完整标题:新生[第01-09集][国语音轨/简繁英字幕].Regeneration.S01.2024.1080p.NF.WEB-DL.DDP2.0.H264-LelveTV 15.28GB




◎标  题 新生
◎译  名 费可的晚宴 / Regeneration
◎年  代 2024
◎产  地 中国大陆
◎类  别 剧情 / 悬疑
◎语  言 汉语普通话
◎IMDb链接 https://www.imdb.com/title/tt28178829/
◎豆瓣链接 https://movie.douban.com/subject/36127872/
◎导  演 申奥 Ao Shen
◎编  剧 申奥 Ao Shen
      张艺凡 Emily Zhang
      高博洋 Boyang Gao
      郑林 Lin Zheng
◎演  员 井柏然 Boran Jing
      周依然 Yiran Zhou
      王砚辉 Yanhui Wang
      黄觉 Jue Huang
      张艺凡 Yifan Zhang
      彭杨 Yang Peng
      何廖侣匀 Lüyun Heliao
      陈雨贤 Yuxian Chen
      高博洋 Boyang Gao

◎简  介
    一场关于费可(井柏然 饰)的追思会,女记者何珊(周依然 饰)与五位陌生人一同受邀。他们都跟费可有着不为人知的过往,但他们发现所认识的费可并不是同一个人。费可到底是谁?众人展开回溯,逐步揭开了关于费可的真相……

##### MediaInfo ######
General
Unique ID : 49135506135037728261051416258284389802 (0x24F7277D92238EB2EABD0E7A5FAC85AA)
Complete name : Regeneration.S01E01.2024.1080p.NF.WEB-DL.DDP2.0.H264-LelveTV.mkv
Duration : 41 min 33 s
Overall bit rate mode : Variable
Overall bit rate : 5 097 kb/s

Video
ID : 1
Format : AVC
Format/Info : Advanced Video Codec
Format profile : Main@L4
Format settings : CABAC / 3 Ref Frames
Format settings, CABAC : Yes
Format settings, Reference frames : 3 frames
Codec ID : V_MPEG4/ISO/AVC
Duration : 41 min 33 s
Bit rate mode : Variable
Bit rate : 5 000 kb/s
Maximum bit rate : 7 500 kb/s
Width : 1 920 pixels
Height : 1 080 pixels
Display aspect ratio : 16:9
Frame rate mode : Constant
Frame rate : 25.000 FPS
Color space : YUV
Chroma subsampling : 4:2:0
Bit depth : 8 bits
Scan type : Progressive
Bits/(Pixel*Frame) : 0.096
Stream size : 1.44 GiB (97%)
Writing library : x264 core 148 r2727 7d026e8
Encoding settings : cabac=1 / ref=3 / deblock=1:0:0 / analyse=0x1:0x111 / me=umh / subme=10 / psy=1 / psy_rd=1.00:0.00 / mixed_ref=1 / me_range=24 / chroma_me=1 / trellis=2 / 8x8dct=0 / cqm=0 / deadzone=21,11 / fast_pskip=1 / chroma_qp_offset=-2 / threads=6 / lookahead_threads=1 / sliced_threads=0 / nr=0 / decimate=1 / interlaced=0 / bluray_compat=0 / stitchable=1 / constrained_intra=0 / bframes=2 / b_pyramid=0 / b_adapt=2 / b_bias=0 / direct=3 / weightb=1 / open_gop=0 / weightp=2 / keyint=250 / keyint_min=126 / scenecut=0 / intra_refresh=0 / rc_lookahead=50 / rc=2pass / mbtree=1 / bitrate=5000 / ratetol=1.0 / qcomp=0.50 / qpmin=6 / qpmax=51 / qpstep=4 / cplxblur=20.0 / qblur=0.5 / vbv_maxrate=7500 / vbv_bufsize=10000 / nal_hrd=vbr / filler=0 / ip_ratio=1.40 / aq=1:1.00
Default : Yes
Forced : No

Audio
ID : 2
Format : E-AC-3
Format/Info : Enhanced AC-3
Commercial name : Dolby Digital Plus
Codec ID : A_EAC3
Duration : 41 min 33 s
Bit rate mode : Constant
Bit rate : 128 kb/s
Channel(s) : 2 channels
Channel layout : L R
Sampling rate : 48.0 kHz
Frame rate : 31.250 FPS (1536 SPF)
Compression mode : Lossy
Stream size : 38.0 MiB (3%)
Title : 中文 [Dolby Digital Plus 2.0]
Language : Chinese
Service kind : Complete Main
Default : Yes
Forced : No

Text #1
ID : 3
Format : UTF-8
Codec ID : S_TEXT/UTF8
Codec ID/Info : UTF-8 Plain Text
Duration : 38 min 10 s
Bit rate : 41 b/s
Frame rate : 0.248 FPS
Count of elements : 567
Stream size : 11.7 KiB (0%)
Title : 中文(简体)
Language : Chinese
Default : Yes
Forced : No

Text #2
ID : 4
Format : UTF-8
Codec ID : S_TEXT/UTF8
Codec ID/Info : UTF-8 Plain Text
Duration : 38 min 10 s
Bit rate : 42 b/s
Frame rate : 0.251 FPS
Count of elements : 574
Stream size : 12.0 KiB (0%)
Title : 中文 (繁體)
Language : Chinese
Default : No
Forced : No

Text #3
ID : 5
Format : UTF-8
Codec ID : S_TEXT/UTF8
Codec ID/Info : UTF-8 Plain Text
Duration : 38 min 10 s
Bit rate : 49 b/s
Frame rate : 0.252 FPS
Count of elements : 578
Stream size : 13.9 KiB (0%)
Title : English
Language : English
Default : No
Forced : No

Menu
00:00:00.000 : en:Part 01
00:05:43.000 : en:Intro
00:07:15.000 : en:Part 02
00:38:49.000 : en:Credits


部分资源为软字幕,移动端推荐播放器:MxPlayer,nPlayer,infuse ,其他播放器请自行尝试。

部分资源为软字幕,电脑端推荐播放器:PotPlayer,完美解码,KMPLAYER,其他播放器请自行尝试。

下载端推荐纯BT下载软件:qBittorrent,Bitcomet,uTorrent ,其他下载软件请自行尝试。不支持吸血迅雷。

上传的附件:
最新回复 (0)