2024 日本 动画 WEB-1080P 声优广播的幕前幕后[第06集][简繁英字幕].Seiyuu.Radio.no.Uraomote.S01.2024.1080p.B-Global.WEB-DL.x264.AAC-ZeroTV 0.20GB

MAY20919R 2024-05-15 23:31 858


完整标题:声优广播的幕前幕后[第06集][简繁英字幕].Seiyuu.Radio.no.Uraomote.S01.2024.1080p.B-Global.WEB-DL.x264.AAC-ZeroTV 0.20GB




◎标  题 声优广播的幕前幕后
◎译  名 声优广播的台前幕后 / Seiyuu Radio no Uraomote
◎片  名 声優ラジオのウラオモテ
◎年  代 2024
◎产  地 日本
◎类  别 动画
◎语  言 日语
◎IMDb链接 https://www.imdb.com/title//
◎豆瓣链接 https://movie.douban.com/subject/36193341/
◎导  演 橘秀树 Tachibana Hideki
◎编  剧 大知庆一郎 Oochi Keiichirou
◎演  员 伊藤美来 Itou Miku
      丰田萌绘 Moe Toyota
      长谷川育美 Ikumi Hasegawa
      东山奈央 Nao Toyama

◎简  介
    「夕阳与~」「夜澄的!预备——」   「「高中生广播~!」」   碰巧就读同一间高中的好姐妹声优搭档——夕暮夕阳与歌种夜澄将教室里的氛围原封不动地呈现给听众的温馨广播节目开播!   「唉~为何得跟你这种阴沉女一起工作。」   「你这猴子还真吵呢。我也不愿意呀。」   ——但是,两位主持人的真面目跟她们偶像声优的形象恰好相反,是最合不来的辣妹×阴沉低调妹……?   台前好姐妹,幕后吵翻天,录制一结束便互相破口大骂!绝对不可能跟这种家伙搭档,然而广播节目不等人……!拿出职业声优的骨气骗过全世界吧!

##### MediaInfo ######
General
Unique ID : 34765183137019996726969931663228571168 (0x1A2787DD6F2E639F0BC030B92A3C8E20)
Complete name : Seiyuu.Radio.no.Uraomote.S01E06.2024.1080p.WEB-DL.x264.AAC-ZeroTV.mkv
Duration : 23 min 40 s
Overall bit rate : 1 177 kb/s

Video
ID : 1
Format : AVC
Format/Info : Advanced Video Codec
Format profile : High@L5
Format settings : CABAC / 8 Ref Frames
Format settings, CABAC : Yes
Format settings, Reference frames : 8 frames
Codec ID : V_MPEG4/ISO/AVC
Duration : 23 min 40 s
Bit rate : 998 kb/s
Width : 1 920 pixels
Height : 1 080 pixels
Display aspect ratio : 16:9
Frame rate mode : Constant
Frame rate : 23.976 (24000/1001) FPS
Original frame rate : 23.976 (23976/1000) FPS
Color space : YUV
Chroma subsampling : 4:2:0
Bit depth : 8 bits
Scan type : Progressive
Bits/(Pixel*Frame) : 0.020
Stream size : 169 MiB (85%)
Title : Japanese
Language : Japanese
Default : Yes
Forced : No
Color range : Limited
Color primaries : BT.709
Transfer characteristics : BT.709
Matrix coefficients : BT.709

Audio
ID : 2
Format : AAC LC
Format/Info : Advanced Audio Codec Low Complexity
Codec ID : A_AAC-2
Duration : 23 min 40 s
Bit rate : 176 kb/s
Channel(s) : 2 channels
Channel layout : L R
Sampling rate : 48.0 kHz
Frame rate : 46.875 FPS (1024 SPF)
Compression mode : Lossy
Stream size : 29.7 MiB (15%)
Title : Japanese
Language : Japanese
Default : Yes
Forced : No

Text #1
ID : 3
Format : UTF-8
Codec ID : S_TEXT/UTF8
Codec ID/Info : UTF-8 Plain Text
Duration : 23 min 39 s
Bit rate : 77 b/s
Frame rate : 0.281 FPS
Count of elements : 399
Stream size : 13.5 KiB (0%)
Title : Chinese Simplified
Language : Chinese
Default : Yes
Forced : No

Text #2
ID : 4
Format : UTF-8
Codec ID : S_TEXT/UTF8
Codec ID/Info : UTF-8 Plain Text
Duration : 23 min 39 s
Bit rate : 77 b/s
Frame rate : 0.281 FPS
Count of elements : 399
Stream size : 13.5 KiB (0%)
Title : Chinese Traditional
Language : Chinese
Default : No
Forced : No

Text #3
ID : 5
Format : ASS
Codec ID : S_TEXT/ASS
Codec ID/Info : Advanced Sub Station Alpha
Duration : 23 min 39 s
Bit rate : 148 b/s
Frame rate : 0.296 FPS
Count of elements : 420
Compression mode : Lossless
Stream size : 25.7 KiB (0%)
Title : English
Language : English
Default : No
Forced : No

Text #4
ID : 6
Format : ASS
Codec ID : S_TEXT/ASS
Codec ID/Info : Advanced Sub Station Alpha
Duration : 23 min 39 s
Bit rate : 300 b/s
Frame rate : 0.328 FPS
Count of elements : 465
Compression mode : Lossless
Stream size : 52.0 KiB (0%)
Title : ???????
Language : Thai
Default : No
Forced : No

Text #5
ID : 7
Format : UTF-8
Codec ID : S_TEXT/UTF8
Codec ID/Info : UTF-8 Plain Text
Duration : 23 min 38 s
Bit rate : 89 b/s
Frame rate : 0.291 FPS
Count of elements : 413
Stream size : 15.6 KiB (0%)
Title : Bahasa Indonesia
Language : Indonesian
Default : No
Forced : No


部分资源为软字幕,移动端推荐播放器:MxPlayer,nPlayer,infuse ,其他播放器请自行尝试。

部分资源为软字幕,电脑端推荐播放器:PotPlayer,完美解码,KMPLAYER,其他播放器请自行尝试。

下载端推荐纯BT下载软件:qBittorrent,Bitcomet,uTorrent ,其他下载软件请自行尝试。不支持吸血迅雷。

上传的附件:
最新回复 (0)