2024 日本 动画 WEB-1080P 声优广播的幕前幕后[第06集][中文字幕].Seiyuu.Radio.no.Uraomote.S01.2024.1080p.Baha.WEB-DL.x264.AAC-ZeroTV 0.34GB

RAY20920M 2024-05-15 23:32 950


完整标题:声优广播的幕前幕后[第06集][中文字幕].Seiyuu.Radio.no.Uraomote.S01.2024.1080p.Baha.WEB-DL.x264.AAC-ZeroTV 0.34GB




◎标  题 声优广播的幕前幕后
◎译  名 声优广播的台前幕后 / Seiyuu Radio no Uraomote
◎片  名 声優ラジオのウラオモテ
◎年  代 2024
◎产  地 日本
◎类  别 动画
◎语  言 日语
◎IMDb链接 https://www.imdb.com/title//
◎豆瓣链接 https://movie.douban.com/subject/36193341/
◎导  演 橘秀树 Tachibana Hideki
◎编  剧 大知庆一郎 Oochi Keiichirou
◎演  员 伊藤美来 Itou Miku
      丰田萌绘 Moe Toyota
      长谷川育美 Ikumi Hasegawa
      东山奈央 Nao Toyama

◎简  介
    「夕阳与~」「夜澄的!预备——」   「「高中生广播~!」」   碰巧就读同一间高中的好姐妹声优搭档——夕暮夕阳与歌种夜澄将教室里的氛围原封不动地呈现给听众的温馨广播节目开播!   「唉~为何得跟你这种阴沉女一起工作。」   「你这猴子还真吵呢。我也不愿意呀。」   ——但是,两位主持人的真面目跟她们偶像声优的形象恰好相反,是最合不来的辣妹×阴沉低调妹……?   台前好姐妹,幕后吵翻天,录制一结束便互相破口大骂!绝对不可能跟这种家伙搭档,然而广播节目不等人……!拿出职业声优的骨气骗过全世界吧!

##### MediaInfo ######
General
Complete name : Seiyuu.Radio.no.Uraomote.S01E06.2024.1080p.Baha.WEB-DL.x264.AAC-ZeroTV.mp4
Duration : 23 min 40 s
Overall bit rate mode : Variable
Overall bit rate : 2 039 kb/s

Video
ID : 1
Format : AVC
Format/Info : Advanced Video Codec
Format profile : High@L5
Format settings : CABAC / 4 Ref Frames
Format settings, CABAC : Yes
Format settings, Reference frames : 4 frames
Codec ID : avc1
Codec ID/Info : Advanced Video Coding
Duration : 23 min 40 s
Source duration : 23 min 40 s
Bit rate : 1 733 kb/s
Width : 1 920 pixels
Height : 1 080 pixels
Display aspect ratio : 16:9
Frame rate mode : Variable
Frame rate : 23.976 (24000/1001) FPS
Minimum frame rate : 23.974 FPS
Maximum frame rate : 23.981 FPS
Color space : YUV
Chroma subsampling : 4:2:0
Bit depth : 8 bits
Scan type : Progressive
Bits/(Pixel*Frame) : 0.035
Stream size : 293 MiB (85%)
Source stream size : 293 MiB (85%)
Writing library : x264 core 161 r3018 db0d417
Encoding settings : cabac=1 / ref=4 / deblock=1:-1:-1 / analyse=0x3:0x113 / me=umh / subme=9 / psy=1 / psy_rd=1.00:0.00 / mixed_ref=1 / me_range=16 / chroma_me=1 / trellis=2 / 8x8dct=1 / cqm=0 / deadzone=21,11 / fast_pskip=1 / chroma_qp_offset=-2 / threads=24 / lookahead_threads=2 / sliced_threads=0 / nr=0 / decimate=1 / interlaced=0 / bluray_compat=0 / constrained_intra=0 / bframes=8 / b_pyramid=2 / b_adapt=1 / b_bias=0 / direct=3 / weightb=1 / open_gop=0 / weightp=2 / keyint=250 / keyint_min=23 / scenecut=40 / intra_refresh=0 / rc_lookahead=50 / rc=crf / mbtree=1 / crf=21.0 / qcomp=0.60 / qpmin=0 / qpmax=69 / qpstep=4 / vbv_maxrate=12000 / vbv_bufsize=80000 / crf_max=0.0 / nal_hrd=none / filler=0 / ip_ratio=1.40 / aq=3:1.00
Codec configuration box : avcC

Audio
ID : 2
Format : AAC LC
Format/Info : Advanced Audio Codec Low Complexity
Codec ID : mp4a-40-2
Duration : 23 min 40 s
Bit rate mode : Variable
Bit rate : 300 kb/s
Maximum bit rate : 304 kb/s
Channel(s) : 2 channels
Channel layout : L R
Sampling rate : 48.0 kHz
Frame rate : 46.875 FPS (1024 SPF)
Compression mode : Lossy
Stream size : 50.8 MiB (15%)
Language : Japanese
Default : Yes
Alternate group : 1


部分资源为软字幕,移动端推荐播放器:MxPlayer,nPlayer,infuse ,其他播放器请自行尝试。

部分资源为软字幕,电脑端推荐播放器:PotPlayer,完美解码,KMPLAYER,其他播放器请自行尝试。

下载端推荐纯BT下载软件:qBittorrent,Bitcomet,uTorrent ,其他下载软件请自行尝试。不支持吸血迅雷。

上传的附件:
最新回复 (0)