2024 日本 动画 WEB-1080P 声优广播的幕前幕后[第06集][中文字幕].Seiyuu.Radio.no.Uraomote.S01.2024.1080p.WEB-DL.H264.AAC-ZeroTV 1.29GB

RAY20920M 2024-05-15 23:32 1070


完整标题:声优广播的幕前幕后[第06集][中文字幕].Seiyuu.Radio.no.Uraomote.S01.2024.1080p.WEB-DL.H264.AAC-ZeroTV 1.29GB




◎标  题 声优广播的幕前幕后
◎译  名 声优广播的台前幕后 / Seiyuu Radio no Uraomote
◎片  名 声優ラジオのウラオモテ
◎年  代 2024
◎产  地 日本
◎类  别 动画
◎语  言 日语
◎IMDb链接 https://www.imdb.com/title//
◎豆瓣链接 https://movie.douban.com/subject/36193341/
◎导  演 橘秀树 Tachibana Hideki
◎编  剧 大知庆一郎 Oochi Keiichirou
◎演  员 伊藤美来 Itou Miku
      丰田萌绘 Moe Toyota
      长谷川育美 Ikumi Hasegawa
      东山奈央 Nao Toyama

◎简  介
    「夕阳与~」「夜澄的!预备——」   「「高中生广播~!」」   碰巧就读同一间高中的好姐妹声优搭档——夕暮夕阳与歌种夜澄将教室里的氛围原封不动地呈现给听众的温馨广播节目开播!   「唉~为何得跟你这种阴沉女一起工作。」   「你这猴子还真吵呢。我也不愿意呀。」   ——但是,两位主持人的真面目跟她们偶像声优的形象恰好相反,是最合不来的辣妹×阴沉低调妹……?   台前好姐妹,幕后吵翻天,录制一结束便互相破口大骂!绝对不可能跟这种家伙搭档,然而广播节目不等人……!拿出职业声优的骨气骗过全世界吧!

##### MediaInfo ######
General
Unique ID : 310210332808596383188524557387150852114 (0xE960563F2C3D558CE46671F7283F0012)
Complete name : Seiyuu.Radio.no.Uraomote.S01E06.2024.1080p.WEB-DL.H264.AAC-ZeroTV.mkv
Duration : 23 min 40 s
Overall bit rate : 7 780 kb/s

Video
ID : 1
Format : AVC
Format/Info : Advanced Video Codec
Format profile : High@L4.1
Format settings : CABAC / 1 Ref Frames
Format settings, CABAC : Yes
Format settings, Reference frames : 1 frame
Format settings, GOP : M=1, N=60
Codec ID : V_MPEG4/ISO/AVC
Duration : 23 min 40 s
Bit rate mode : Constant
Bit rate : 8 000 kb/s
Width : 1 920 pixels
Height : 1 080 pixels
Display aspect ratio : 16:9
Frame rate mode : Constant
Frame rate : 29.970 (30000/1001) FPS
Color space : YUV
Chroma subsampling : 4:2:0
Bit depth : 8 bits
Scan type : Progressive
Bits/(Pixel*Frame) : 0.129
Stream size : 1.27 GiB (98%)
Language : English
Default : Yes
Forced : No

Audio
ID : 2
Format : AAC LC
Format/Info : Advanced Audio Codec Low Complexity
Codec ID : A_AAC-2
Duration : 23 min 38 s
Bit rate : 125 kb/s
Channel(s) : 2 channels
Channel layout : L R
Sampling rate : 48.0 kHz
Frame rate : 46.875 FPS (1024 SPF)
Compression mode : Lossy
Stream size : 21.2 MiB (2%)
Title : 日语
Language : Japanese
Default : Yes
Forced : No

Text #1
ID : 3
Format : UTF-8
Codec ID : S_TEXT/UTF8
Codec ID/Info : UTF-8 Plain Text
Duration : 23 min 39 s
Bit rate : 79 b/s
Frame rate : 0.281 FPS
Count of elements : 399
Stream size : 13.8 KiB (0%)
Title : 简体中文
Language : Chinese
Default : No
Forced : No

Text #2
ID : 4
Format : UTF-8
Codec ID : S_TEXT/UTF8
Codec ID/Info : UTF-8 Plain Text
Duration : 23 min 39 s
Bit rate : 79 b/s
Frame rate : 0.281 FPS
Count of elements : 399
Stream size : 13.8 KiB (0%)
Title : 繁体中文
Language : Chinese
Default : No
Forced : No


部分资源为软字幕,移动端推荐播放器:MxPlayer,nPlayer,infuse ,其他播放器请自行尝试。

部分资源为软字幕,电脑端推荐播放器:PotPlayer,完美解码,KMPLAYER,其他播放器请自行尝试。

下载端推荐纯BT下载软件:qBittorrent,Bitcomet,uTorrent ,其他下载软件请自行尝试。不支持吸血迅雷。

上传的附件:
最新回复 (0)