2014 英国 剧情 WEB-1080P 维多利亚女王的信件[第01-2集][中文字幕].2014.1080p.WEB-DL.H264.AAC-ZeroTV 2.31GB

RAY20920M 2024-05-22 17:32 646


完整标题:维多利亚女王的信件[第01-2集][中文字幕].2014.1080p.WEB-DL.H264.AAC-ZeroTV 2.31GB




◎标  题 维多利亚女王的信件
◎片  名 Queen Victoria's Letters: A Monarch Unveiled
◎年  代 2014
◎产  地 英国
◎类  别 纪录片 / 历史
◎语  言 英语
◎IMDb链接 https://www.imdb.com/title//
◎豆瓣链接 https://movie.douban.com/subject/26258093/

◎简  介
    Biographer AN Wilson uncovers the intriguing personal life of Queen Victoria through her journals and letters in this psychological portrait of Britain's longest reigning monarch.

##### MediaInfo ######
General
Complete name : Queen.Victoria's.Letters.A.Monarch.Unveiled.S01E01.2014.1080p.WEB-DL.H264.AAC-ZeroTV.mp4
Duration : 59 min 0 s
Overall bit rate : 2 803 kb/s

Video
ID : 1
Format : AVC
Format/Info : Advanced Video Codec
Format profile : High@L4
Format settings : CABAC / 4 Ref Frames
Format settings, CABAC : Yes
Format settings, Reference frames : 4 frames
Codec ID : avc1
Codec ID/Info : Advanced Video Coding
Duration : 59 min 0 s
Bit rate : 2 604 kb/s
Width : 1 920 pixels
Height : 1 080 pixels
Display aspect ratio : 16:9
Frame rate mode : Constant
Frame rate : 25.000 FPS
Color space : YUV
Chroma subsampling : 4:2:0
Bit depth : 8 bits
Scan type : Progressive
Bits/(Pixel*Frame) : 0.050
Stream size : 1.07 GiB (93%)
Writing library : BiliBili H264 Encoder v1.0
Color range : Limited
Color primaries : BT.709
Transfer characteristics : BT.709
Matrix coefficients : BT.709
Codec configuration box : avcC

Audio
ID : 2
Format : AAC LC
Format/Info : Advanced Audio Codec Low Complexity
Codec ID : mp4a-40-2
Duration : 59 min 0 s
Bit rate mode : Constant
Bit rate : 192 kb/s
Channel(s) : 2 channels
Channel layout : L R
Sampling rate : 48.0 kHz
Frame rate : 46.875 FPS (1024 SPF)
Compression mode : Lossy
Stream size : 81.0 MiB (7%)
Default : Yes
Alternate group : 1


部分资源为软字幕,移动端推荐播放器:MxPlayer,nPlayer,infuse ,其他播放器请自行尝试。

部分资源为软字幕,电脑端推荐播放器:PotPlayer,完美解码,KMPLAYER,其他播放器请自行尝试。

下载端推荐纯BT下载软件:qBittorrent,Bitcomet,uTorrent ,其他下载软件请自行尝试。不支持吸血迅雷。

上传的附件:
最新回复 (0)