2024 韩国 剧情 WEB-1080P 美女与纯情男[第17-18集][简繁英字幕].Beauty.and.Mr.Romantic.S01.1080p.Viu.WEB-DL.AAC2.0.H.264-BlackTV 2.85GB

RAY20920M 2024-05-23 11:13 1425


完整标题:美女与纯情男[第17-18集][简繁英字幕].Beauty.and.Mr.Romantic.S01.1080p.Viu.WEB-DL.AAC2.0.H.264-BlackTV 2.85GB




◎标  题 美女与纯情男
◎片  名 미녀와 순정남
◎年  代 2024
◎产  地 韩国
◎类  别 剧情 / 爱情
◎语  言 韩语
◎IMDb链接 https://www.imdb.com/title//
◎豆瓣链接 https://movie.douban.com/subject/36455206/
◎导  演 洪硕九 Seok-goo Hong
◎编  剧 金世庆 Sa Kyung Kim
◎演  员 池贤宇 Hyun-Woo Ji
      林秀香 Su-hyang Im

◎简  介
    讲述了一夜之间跌入谷底的顶级演员和让她重新振作起来的初级电视剧PD之间的罗曼史。   林秀香饰演顶级演员朴道拉。小时候被妈妈牵着鼻子作为童星出道,15年来一直在做演员,起到了家里最重要的作用。   池贤宇饰演有着一定要成功的坚定梦想的血气方刚的电视剧PD高必胜一角。高必胜和朴道拉将在电视剧拍摄现场相遇并牵扯在一起。

##### MediaInfo ######
General
Unique ID : 11798882508439340592990682714607971448 (0x8E061D22DE40EB6C4761B34D413EC78)
Complete name : Beauty.and.Mr.Romantic.S01E17.1080p.Viu.WEB-DL.AAC2.0.H.264-BlackTV.mkv
Duration : 1 h 6 min
Overall bit rate mode : Variable
Overall bit rate : 3 117 kb/s

Video
ID : 1
Format : AVC
Format/Info : Advanced Video Codec
Format profile : High@L4.1
Format settings : CABAC / 4 Ref Frames
Format settings, CABAC : Yes
Format settings, Reference frames : 4 frames
Codec ID : V_MPEG4/ISO/AVC
Duration : 1 h 6 min
Bit rate mode : Variable
Bit rate : 3 018 kb/s
Maximum bit rate : 4 500 kb/s
Width : 1 920 pixels
Height : 1 080 pixels
Display aspect ratio : 16:9
Frame rate mode : Constant
Frame rate : 29.970 (30000/1001) FPS
Original frame rate : 29.970 (29970/1000) FPS
Color space : YUV
Chroma subsampling : 4:2:0
Bit depth : 8 bits
Scan type : Progressive
Bits/(Pixel*Frame) : 0.049
Stream size : 1.39 GiB (97%)
Writing library : VOLO1.4.1
Default : Yes
Forced : No

Audio
ID : 2
Format : AAC LC
Format/Info : Advanced Audio Codec Low Complexity
Codec ID : A_AAC-2
Duration : 1 h 6 min
Bit rate : 96.0 kb/s
Channel(s) : 2 channels
Channel layout : L R
Sampling rate : 48.0 kHz
Frame rate : 46.875 FPS (1024 SPF)
Compression mode : Lossy
Delay relative to video : -42 ms
Stream size : 45.4 MiB (3%)
Default : Yes
Forced : No

Text #1
ID : 3
Format : UTF-8
Codec ID : S_TEXT/UTF8
Codec ID/Info : UTF-8 Plain Text
Duration : 1 h 6 min
Bit rate : 58 b/s
Frame rate : 0.263 FPS
Count of elements : 1042
Stream size : 28.3 KiB (0%)
Title : English
Language : English
Default : No
Forced : No

Text #2
ID : 4
Format : UTF-8
Codec ID : S_TEXT/UTF8
Codec ID/Info : UTF-8 Plain Text
Duration : 1 h 5 min
Bit rate : 49 b/s
Frame rate : 0.258 FPS
Count of elements : 1023
Stream size : 23.9 KiB (0%)
Title : Simplified
Language : Chinese
Default : No
Forced : No

Text #3
ID : 5
Format : UTF-8
Codec ID : S_TEXT/UTF8
Codec ID/Info : UTF-8 Plain Text
Duration : 1 h 5 min
Bit rate : 49 b/s
Frame rate : 0.258 FPS
Count of elements : 1023
Stream size : 23.9 KiB (0%)
Title : Traditional
Language : Chinese
Default : Yes
Forced : No


点击图片可查看大图

软字幕无法在截图上展现,HDR版本/杜比视界版本截图会出现颜色异常,请使用支持的设备播放!

部分资源为软字幕,移动端推荐播放器:MxPlayer,nPlayer,infuse ,其他播放器请自行尝试。

部分资源为软字幕,电脑端推荐播放器:PotPlayer,完美解码,KMPLAYER,其他播放器请自行尝试。

下载端推荐纯BT下载软件:qBittorrent,Bitcomet,uTorrent ,其他下载软件请自行尝试。不支持吸血迅雷。

上传的附件:
最新回复 (0)