2024 韩国 剧情 WEB-1080P 七人的复活[全16集][简繁英字幕].The.Escape.Of.The.Seven.S02.1080p.Viu.WEB-DL.AAC2.0.H.264-BlackTV 15.51GB

MAY20919R 2024-05-23 13:08 2224


完整标题:七人的复活[全16集][简繁英字幕].The.Escape.Of.The.Seven.S02.1080p.Viu.WEB-DL.AAC2.0.H.264-BlackTV 15.51GB




◎标  题 七人的复活
◎译  名 七人的逃脱 第二季 / 7인의 탈출2 / Reborn of the Seven: War For Survival Season 2 / The Escape of the Seven: Resurrection
◎片  名 7인의 부활
◎年  代 2024
◎产  地 韩国
◎类  别 剧情 / 悬疑
◎语  言 韩语
◎IMDb链接 https://www.imdb.com/title//
◎豆瓣链接 https://movie.douban.com/subject/36283153/
◎导  演 朱东民 Dong-min Joo
      吴俊赫 Joon-hyuk Oh
◎编  剧 金顺玉 Kim Sun-ok
◎演  员 严基俊 Ki-joon Um
      黄正音 Jeong-eum Hwang
      李准 Joon Lee
      李侑菲 Yoo-Bi Lee
      申恩庆 Eun-Kyung Shin
      尹仲勋 Jong-hoon Yoon
      赵允熙 Yun-hee Cho
      赵在允 Jae-yun Jo
      李德华 Deok-hwa Lee

◎简  介
    SBS剧集《七人的逃脱》将季播,预计拍摄第二季。

##### MediaInfo ######
General
Unique ID : 22963886237697794499857881819516319452 (0x1146AF015B98E75B570C1CF19CB536DC)
Complete name : The.Escape.Of.The.Seven.S02E01.1080p.Viu.WEB-DL.AAC2.0.H.264-BlackTV.mkv
Duration : 1 h 24 min
Overall bit rate mode : Variable
Overall bit rate : 1 874 kb/s

Video
ID : 1
Format : AVC
Format/Info : Advanced Video Codec
Format profile : High@L4.1
Format settings : CABAC / 4 Ref Frames
Format settings, CABAC : Yes
Format settings, Reference frames : 4 frames
Codec ID : V_MPEG4/ISO/AVC
Duration : 1 h 24 min
Bit rate mode : Variable
Bit rate : 1 775 kb/s
Maximum bit rate : 4 500 kb/s
Width : 1 920 pixels
Height : 1 080 pixels
Display aspect ratio : 16:9
Frame rate mode : Constant
Frame rate : 29.970 (30000/1001) FPS
Original frame rate : 29.970 (29970/1000) FPS
Color space : YUV
Chroma subsampling : 4:2:0
Bit depth : 8 bits
Scan type : Progressive
Bits/(Pixel*Frame) : 0.029
Stream size : 1.05 GiB (95%)
Writing library : VOLO1.4.1
Default : Yes
Forced : No

Audio
ID : 2
Format : AAC LC
Format/Info : Advanced Audio Codec Low Complexity
Codec ID : A_AAC-2
Duration : 1 h 24 min
Bit rate : 96.0 kb/s
Channel(s) : 2 channels
Channel layout : L R
Sampling rate : 48.0 kHz
Frame rate : 46.875 FPS (1024 SPF)
Compression mode : Lossy
Delay relative to video : -42 ms
Stream size : 58.0 MiB (5%)
Default : Yes
Forced : No

Text #1
ID : 3
Format : UTF-8
Codec ID : S_TEXT/UTF8
Codec ID/Info : UTF-8 Plain Text
Duration : 1 h 23 min
Bit rate : 46 b/s
Frame rate : 0.215 FPS
Count of elements : 1078
Stream size : 28.6 KiB (0%)
Title : English
Language : English
Default : No
Forced : No

Text #2
ID : 4
Format : UTF-8
Codec ID : S_TEXT/UTF8
Codec ID/Info : UTF-8 Plain Text
Duration : 1 h 23 min
Bit rate : 41 b/s
Frame rate : 0.210 FPS
Count of elements : 1048
Stream size : 25.1 KiB (0%)
Title : Simplified
Language : Chinese
Default : No
Forced : No

Text #3
ID : 5
Format : UTF-8
Codec ID : S_TEXT/UTF8
Codec ID/Info : UTF-8 Plain Text
Duration : 1 h 23 min
Bit rate : 41 b/s
Frame rate : 0.210 FPS
Count of elements : 1048
Stream size : 25.1 KiB (0%)
Title : Traditional
Language : Chinese
Default : Yes
Forced : No


点击图片可查看大图

软字幕无法在截图上展现,HDR版本/杜比视界版本截图会出现颜色异常,请使用支持的设备播放!

部分资源为软字幕,移动端推荐播放器:MxPlayer,nPlayer,infuse ,其他播放器请自行尝试。

部分资源为软字幕,电脑端推荐播放器:PotPlayer,完美解码,KMPLAYER,其他播放器请自行尝试。

下载端推荐纯BT下载软件:qBittorrent,Bitcomet,uTorrent ,其他下载软件请自行尝试。不支持吸血迅雷。

上传的附件:
最新回复 (0)