2014 美国 剧情 WEB-1080P 魔鬼圣婴[第01-2集][中文字幕].Rosemarys.Baby.S01.1080p.CATCHPLAY.WEB-DL.AAC2.0.H.264-BlackTV 4.89GB

MAY20919R 2024-05-23 18:18 1162


完整标题:魔鬼圣婴[第01-2集][中文字幕].Rosemarys.Baby.S01.1080p.CATCHPLAY.WEB-DL.AAC2.0.H.264-BlackTV 4.89GB




◎标  题 魔鬼圣婴
◎片  名 Rosemary's Baby
◎年  代 2014
◎产  地 美国
◎类  别 剧情 / 悬疑 / 恐怖
◎语  言 英语
◎IMDb评分 5.5/10 (5770人评价)
◎IMDb链接 https://www.imdb.com/title/tt3087752/
◎豆瓣评分 5.8/10 (1572人评价)
◎豆瓣链接 https://movie.douban.com/subject/25808751/
◎导  演 阿格涅丝卡·霍兰 Agnieszka Holland
◎编  剧 黄毅瑜 James Wong
◎演  员 帕特里克·J·亚当斯 Patrick J. Adams
      卡洛尔·布盖 Carole Bouquet
      克里斯蒂娜·科尔 Christina Cole
      詹森·艾萨克 Jason Isaacs
      奥利维尔·雷堡汀 Olivier Rabourdin
      维罗妮卡·罗萨蒂 Weronika Rosati
      佐伊·索尔达娜 Zoe Saldana
      斯特凡诺·卡塞蒂 Stefano Cassetti

◎简  介
    Rosemary's Baby is the modern-day adaptation of the 1967 best-selling suspense novel by Ira Levin. The story centers on a young married couple (Saldana and Adams) who move into a Paris apartment that has a haunted past. After getting pregnant, the wife becomes increasingly suspicious that both her husband and their neighbors will have ulterior motives when her child is born.

##### MediaInfo ######
General
Unique ID : 224560268253378235731837276470158192587 (0xA8F0BC07DB459F84D85F8A51CFFE6FCB)
Complete name : Rosemarys.Baby.S01E01.1080p.CATCHPLAY.WEB-DL.AAC2.0.H.264-BlackTV.mkv
Duration : 1 h 24 min
Overall bit rate mode : Variable
Overall bit rate : 4 132 kb/s

Video
ID : 1
Format : AVC
Format/Info : Advanced Video Codec
Format profile : Main@L4.1
Format settings : CABAC / 4 Ref Frames
Format settings, CABAC : Yes
Format settings, Reference frames : 4 frames
Format settings, GOP : M=3, N=48
Codec ID : V_MPEG4/ISO/AVC
Duration : 1 h 24 min
Bit rate mode : Variable
Bit rate : 4 000 kb/s
Maximum bit rate : 6 000 kb/s
Width : 1 920 pixels
Height : 1 080 pixels
Display aspect ratio : 16:9
Frame rate mode : Constant
Frame rate : 23.976 (23976/1000) FPS
Original frame rate : 23.976 (24000/1001) FPS
Color space : YUV
Chroma subsampling : 4:2:0
Bit depth : 8 bits
Scan type : Progressive
Bits/(Pixel*Frame) : 0.080
Stream size : 2.36 GiB (97%)
Language : English
Default : Yes
Forced : No

Audio
ID : 2
Format : AAC LC
Format/Info : Advanced Audio Codec Low Complexity
Codec ID : A_AAC-2
Duration : 1 h 24 min
Bit rate : 128 kb/s
Channel(s) : 2 channels
Channel layout : L R
Sampling rate : 48.0 kHz
Frame rate : 46.875 FPS (1024 SPF)
Compression mode : Lossy
Stream size : 77.6 MiB (3%)
Language : English
Default : Yes
Forced : No

Text #1
ID : 3
Format : UTF-8
Codec ID : S_TEXT/UTF8
Codec ID/Info : UTF-8 Plain Text
Duration : 1 h 23 min
Bit rate : 101 b/s
Frame rate : 0.512 FPS
Count of elements : 2564
Stream size : 61.7 KiB (0%)
Language : Chinese
Default : No
Forced : No

Text #2
ID : 4
Format : UTF-8
Codec ID : S_TEXT/UTF8
Codec ID/Info : UTF-8 Plain Text
Duration : 1 h 23 min
Bit rate : 46 b/s
Frame rate : 0.254 FPS
Count of elements : 1271
Stream size : 28.2 KiB (0%)
Title : Taiwan
Language : Chinese
Default : No
Forced : No

Text #3
ID : 5
Format : UTF-8
Codec ID : S_TEXT/UTF8
Codec ID/Info : UTF-8 Plain Text
Duration : 1 h 23 min
Bit rate : 59 b/s
Frame rate : 0.278 FPS
Count of elements : 1393
Stream size : 36.1 KiB (0%)
Language : English
Default : No
Forced : No


点击图片可查看大图

软字幕无法在截图上展现,HDR版本/杜比视界版本截图会出现颜色异常,请使用支持的设备播放!

部分资源为软字幕,移动端推荐播放器:MxPlayer,nPlayer,infuse ,其他播放器请自行尝试。

部分资源为软字幕,电脑端推荐播放器:PotPlayer,完美解码,KMPLAYER,其他播放器请自行尝试。

下载端推荐纯BT下载软件:qBittorrent,Bitcomet,uTorrent ,其他下载软件请自行尝试。不支持吸血迅雷。

上传的附件:
最新回复 (0)