2024 韩国 剧情 WEB-1080P 联结[第01集][中文字幕].Connection.S01.1080p.WEB-DL.AAC2.0.H.264-BlackTV 3.48GB

RAY20920M 2024-05-25 02:22 6836


完整标题:联结[第01集][中文字幕].Connection.S01.1080p.WEB-DL.AAC2.0.H.264-BlackTV 3.48GB




◎标  题 联结
◎译  名 连线 / 关系 / Connection
◎片  名 커넥션
◎年  代 2024
◎产  地 韩国
◎类  别 剧情 / 犯罪
◎语  言 韩语
◎IMDb链接 https://www.imdb.com/title//
◎豆瓣链接 https://movie.douban.com/subject/36680645/
◎导  演 李太坤 Lee Tae gon
◎编  剧 朴妍善 Park Yun Sun
◎演  员 池晟 Seong Ji
      田美都 Mi-do Jeon

◎简  介
    讲述因为某个人被强制涉毒的缉毒刑警,为了追踪留下50亿保险金后离去的高中同学的死亡而显露出来的朋友之间变质友情的犯罪搜查惊悚故事。   池晟饰演冷静又缜密性格的重案组张在京,他是因为高中同学选择死亡后得到50亿保险金的人物。在警局备受尊敬,和友情、工作、家人都保持距离,必须守护原则的信念。   田美都饰演被不当解雇后回到故乡的寒酸新闻公司经济部长吴允真,丈夫和子女移民海外她独自寄生活费的刹那,听到高中同学死亡剩下50亿保险金的消息之后,展现友情素面。自我主张很强,勇往直前,决心成为垃圾记者。

##### MediaInfo ######
General
Unique ID : 82033963240708804678481774983017374797 (0x3DB72AA803D2107739A0DEEB69C3A44D)
Complete name : Connection.S01E01.1080p.WEB-DL.AAC2.0.H.264-BlackTV.mkv
Duration : 1 h 4 min
Overall bit rate : 7 706 kb/s

Video
ID : 1
Format : AVC
Format/Info : Advanced Video Codec
Format profile : High@L4.1
Format settings : CABAC / 1 Ref Frames
Format settings, CABAC : Yes
Format settings, Reference frames : 1 frame
Format settings, GOP : M=1, N=60
Codec ID : V_MPEG4/ISO/AVC
Duration : 1 h 4 min
Bit rate mode : Constant
Bit rate : 7 578 kb/s
Nominal bit rate : 8 000 kb/s
Width : 1 920 pixels
Height : 1 080 pixels
Display aspect ratio : 16:9
Frame rate mode : Constant
Frame rate : 29.970 (30000/1001) FPS
Color space : YUV
Chroma subsampling : 4:2:0
Bit depth : 8 bits
Scan type : Progressive
Bits/(Pixel*Frame) : 0.122
Stream size : 3.42 GiB (98%)
Language : Korean
Default : Yes
Forced : No

Audio
ID : 2
Format : AAC LC
Format/Info : Advanced Audio Codec Low Complexity
Codec ID : A_AAC-2
Duration : 1 h 4 min
Bit rate : 125 kb/s
Channel(s) : 2 channels
Channel layout : L R
Sampling rate : 48.0 kHz
Frame rate : 46.875 FPS (1024 SPF)
Compression mode : Lossy
Stream size : 57.9 MiB (2%)
Language : Korean
Default : Yes
Forced : No

Text
ID : 3
Format : UTF-8
Codec ID : S_TEXT/UTF8
Codec ID/Info : UTF-8 Plain Text
Duration : 1 h 4 min
Bit rate : 40 b/s
Frame rate : 0.211 FPS
Count of elements : 816
Stream size : 19.2 KiB (0%)
Title : Traditional
Language : Chinese
Default : No
Forced : No


点击图片可查看大图

软字幕无法在截图上展现,HDR版本/杜比视界版本截图会出现颜色异常,请使用支持的设备播放!

部分资源为软字幕,移动端推荐播放器:MxPlayer,nPlayer,infuse ,其他播放器请自行尝试。

部分资源为软字幕,电脑端推荐播放器:PotPlayer,完美解码,KMPLAYER,其他播放器请自行尝试。

下载端推荐纯BT下载软件:qBittorrent,Bitcomet,uTorrent ,其他下载软件请自行尝试。不支持吸血迅雷。

上传的附件:
最新回复 (0)