2014 日本 剧情 WEB-1080P 魔法科高校的劣等生[第08集][简繁英字幕].Mahouka.Koukou.no.Rettousei.S03.2024.1080p.B-Global.WEB-DL.x264.AAC-ZeroTV 0.32G

RAY20920M 2024-05-25 02:23 2152


完整标题:魔法科高校的劣等生[第08集][简繁英字幕].Mahouka.Koukou.no.Rettousei.S03.2024.1080p.B-Global.WEB-DL.x264.AAC-ZeroTV 0.32GB




◎标  题 魔法科高校的劣等生
◎译  名 魔法科高中的劣等生 / Mahouka Koukou no Rettousei / The Irregular at Magic High
◎片  名 魔法科高校の劣等生
◎年  代 2014
◎产  地 日本
◎类  别 剧情 / 动画
◎语  言 日语
◎IMDb评分 7/10 (3967人评价)
◎IMDb链接 https://www.imdb.com/title/tt3874528/
◎豆瓣评分 6.1/10 (8649人评价)
◎豆瓣链接 https://movie.douban.com/subject/25741564/
◎导  演 小野学 Manabu Ono
       熊泽祐嗣 Yuuji Kumazawa
       川村贤一 Kawamura Kenichi
       宫崎修治 Miyazaki Shuuji
       仓谷凉一 Kuraya Ryouichi
       福多润 Fukuta Jun
       松村政辉 Matsumura Masaki
       白石道太 Michita Shiraishi
       中津环 Nakatsu Tamaki
       吉田理纱子 Yoshida Risako
       关大 Seki Dai
       横田一平 Yokota Ippei
       久保山英一 Kuboyama Eiichi
◎编  剧 中本宗应 Nakamoto Muneo
       木泽行人 Yukito Kizawa
       菅原雪绘 Yukie Sugawara
◎演  员 中村悠一 Yuuichi Nakamura
       早见沙织 Saori Hayami
       内山夕实 Yumi Uchiyama
       寺岛拓笃 Takuma Terashima
       佐藤聪美 Satomi Sato
       田丸笃志 Atsushi Tamaru
       雨宫天 Sora Amamiya
       巽悠衣子 Yuiko Tatsumi
       井上麻里奈 Marina Inoue
       木村良平 Ryohei Kimura
       诹访部顺一 Junichi Suwabe
       花泽香菜 Kana Hanazawa
       中原麻衣 Mai Nakahara
       户松遥 Haruka Tomatsu
       杉田智和 Tomokazu Sugita
       松冈祯丞 Yoshitsugu Matsuoka
       村濑步 Ayumu Murase
       山下大辉 Daiki Yamashita
       田边留依 Rui Tanabe
       西明日香 Asuka Nishi
       齐藤佑圭 Yuka Saito
       大西沙织 Saori Oonishi
       齐藤壮马 Soma Saito
       滨田贤二 Kenji Hamada
       加藤将之 Masayuki Katô
       斋藤千和 Chiwa Saito
       井上喜久子 Kikuko Inoue
       子安武人 Takehito Koyasu
       丰口惠美 Megumi Toyoguchi
       日笠阳子 Yoko Hikasa
       远藤绫 Aya Endô
       丹下樱 Sakura Tange
       东山奈央 Nao Toyama
       中博史 Hiroshi Naka
       清川元梦 Motomu Kiyokawa
       大川透 Tôru Ôkawa
       新垣樽助 Tarusuke Shingaki
       川原庆久 Yoshihisa Kawahara
       伊藤静 Shizuka Ito
       木内秀信 Hidenobu Kiuchi
       千叶进步 Susumu Chiba
       丹沢晃之 Tanzawa Teruyuki
       藤原贵弘 Takahiro Fujiwara
       斧笃 Ono Atsushi
       田中完 Tanaka Kan
       冲佳苗 Kanae Oki
       久野美咲 Misaki Kuno
       浅仓杏美 Azumi Asakura
       饭田友子 Yuuko Iida
       诹访彩花 Ayaka Suwa
       柚木凉香 Ryôka Yuzuki
       远藤大智 Daichi Endo
       荻野晴朗 Ogino Seirou
       泷知史 Satoshi Taki
       佐藤晴男 Satou Haruo
       柳田淳一 Yanagita Junichi
       佐藤友启 Satou Tomohiro
       林大地 Daichi Hayashi
       山本格 Yamamoto Itaru
       谷内健 Yanai Ken
       永冢拓马 Takuma Nagatsuka
       千叶一伸 Isshin Chiba
       置鲇龙太郎 Ryôtarô Okiayu
       游佐浩二 Koji Yusa
       天崎滉平 Kôhei Amasaki
       Lynn Lynn
       小笠原早纪 Ogasawara Saki
       大山镐则 Ooyama Takanori
       四宫豪 Shinomiya Gou
       大原崇 Oohara Takashi
       野濑育二 Ikuji Nose
       铃木晴久 Haruhisa Suzuki
       井上刚 Gou Inoue
       滨野大辉 Daiki Hamano
       内田雄马 Yuma Uchida
       岩泽俊树 Toshiki Iwasawa

◎简  介
    故事发生在二十一世纪末,彼时,魔法早就已经不再仅存与神话和传说之中,而是同科学与超能力融合,成为了人尽皆知的存在。国家甚至成立了魔法大学附属第一高校,专门培养此方面的人才,以便更好的为国家效力。                                                                      司波达也(中村悠一 配音)和妹妹司波深雪(早见沙织 配音)是魔法高校的新生,深雪是能力优秀的“花冠”,而达也则是作为其替补的二科生“杂草”。在学园中,兄妹两人结识了许多有趣的同伴们——个性大大咧咧不拘小节的千叶艾丽卡(内山夕实 配音)、文静胆小的柴田美月(佐藤聪美 配音)、正直勇敢的西城雷欧哈鲁特(寺岛拓笃 配音)、认真努力的吉田干比古(田丸笃志 配音),在学习的过程中,存在于学园之中的秘密也在逐渐揭晓。

##### MediaInfo ######
General
Unique ID                                : 189042908593674011141236087971348829280 (0x8E3856FFFB2949BDF56FA93C60F15460)
Complete name                            : Mahouka.Koukou.no.Rettousei.S03E08.2024.1080p.WEB-DL.x264.AAC-ZeroTV.mkv
Duration                                 : 23 min 41 s
Overall bit rate                         : 1 952 kb/s

Video
ID                                       : 1
Format                                   : AVC
Format/Info                              : Advanced Video Codec
Format profile                           : High@L5
Format settings                          : CABAC / 8 Ref Frames
Format settings, CABAC                   : Yes
Format settings, Reference frames        : 8 frames
Codec ID                                 : V_MPEG4/ISO/AVC
Duration                                 : 23 min 40 s
Bit rate                                 : 1 751 kb/s
Width                                    : 1 920 pixels
Height                                   : 1 080 pixels
Display aspect ratio                     : 16:9
Frame rate mode                          : Constant
Frame rate                               : 23.976 (24000/1001) FPS
Original frame rate                      : 23.976 (23976/1000) FPS
Color space                              : YUV
Chroma subsampling                       : 4:2:0
Bit depth                                : 8 bits
Scan type                                : Progressive
Bits/(Pixel*Frame)                       : 0.035
Stream size                              : 296 MiB (90%)
Title                                    : Japanese
Language                                 : Japanese
Default                                  : Yes
Forced                                   : No
Color range                              : Limited
Color primaries                          : BT.709
Transfer characteristics                 : BT.709
Matrix coefficients                      : BT.709

Audio
ID                                       : 2
Format                                   : AAC LC
Format/Info                              : Advanced Audio Codec Low Complexity
Codec ID                                 : A_AAC-2
Duration                                 : 23 min 40 s
Bit rate                                 : 200 kb/s
Channel(s)                               : 2 channels
Channel layout                           : L R
Sampling rate                            : 48.0 kHz
Frame rate                               : 46.875 FPS (1024 SPF)
Compression mode                         : Lossy
Stream size                              : 33.8 MiB (10%)
Title                                    : Japanese
Language                                 : Japanese
Default                                  : Yes
Forced                                   : No

Text #1
ID                                       : 3
Format                                   : UTF-8
Codec ID                                 : S_TEXT/UTF8
Codec ID/Info                            : UTF-8 Plain Text
Duration                                 : 23 min 39 s
Bit rate                                 : 41 b/s
Frame rate                               : 0.209 FPS
Count of elements                        : 297
Stream size                              : 7.10 KiB (0%)
Title                                    : Chinese Simplified
Language                                 : Chinese
Default                                  : Yes
Forced                                   : No

Text #2
ID                                       : 4
Format                                   : UTF-8
Codec ID                                 : S_TEXT/UTF8
Codec ID/Info                            : UTF-8 Plain Text
Duration                                 : 23 min 39 s
Bit rate                                 : 41 b/s
Frame rate                               : 0.209 FPS
Count of elements                        : 297
Stream size                              : 7.11 KiB (0%)
Title                                    : Chinese Traditional
Language                                 : Chinese
Default                                  : No
Forced                                   : No

Text #3
ID                                       : 5
Format                                   : UTF-8
Codec ID                                 : S_TEXT/UTF8
Codec ID/Info                            : UTF-8 Plain Text
Duration                                 : 23 min 39 s
Bit rate                                 : 51 b/s
Frame rate                               : 0.178 FPS
Count of elements                        : 253
Stream size                              : 8.99 KiB (0%)
Title                                    : English
Language                                 : English
Default                                  : No
Forced                                   : No

Text #4
ID                                       : 6
Format                                   : UTF-8
Codec ID                                 : S_TEXT/UTF8
Codec ID/Info                            : UTF-8 Plain Text
Duration                                 : 23 min 39 s
Bit rate                                 : 130 b/s
Frame rate                               : 0.170 FPS
Count of elements                        : 241
Stream size                              : 22.5 KiB (0%)
Title                                    : ???????
Language                                 : Thai
Default                                  : No
Forced                                   : No

Text #5
ID                                       : 7
Format                                   : ASS
Codec ID                                 : S_TEXT/ASS
Codec ID/Info                            : Advanced Sub Station Alpha
Duration                                 : 23 min 40 s
Bit rate                                 : 93 b/s
Frame rate                               : 0.172 FPS
Count of elements                        : 245
Compression mode                         : Lossless
Stream size                              : 16.2 KiB (0%)
Title                                    : Bahasa Indonesia
Language                                 : Indonesian
Default                                  : No
Forced                                   : No


点击图片可查看大图

软字幕无法在截图上展现,HDR版本/杜比视界版本截图会出现颜色异常,请使用支持的设备播放!

部分资源为软字幕,移动端推荐播放器:MxPlayer,nPlayer,infuse ,其他播放器请自行尝试。

部分资源为软字幕,电脑端推荐播放器:PotPlayer,完美解码,KMPLAYER,其他播放器请自行尝试。

下载端推荐纯BT下载软件:qBittorrent,Bitcomet,uTorrent ,其他下载软件请自行尝试。不支持吸血迅雷。

上传的附件:
最新回复 (0)